Статистика раздачи
Размер:  5,34 GB   |    Зарегистрирован:  8 месяцев 1 день   |    Скачан:  0 раз

Полного источника не было: Никогда

 
   
 
 

DR_KTO ®

Пол:
Не указан
Стаж:
8 месяцев 2 дня
Сообщений:
105

Пора в космос! (33 вып.)
Дата/Год выпуска: 2013-2014
Страна: Россия
Жанр: Детская, познавательная
Продолжительность: ~00:15:00 х 20
Перевод: Не требуется
Русские субтитры: нет
Режиссер: Ваня Суханов
Ведущие: Егор Клинаев, Катя Филюгина
Телеканал: Карусель
Описание: Первая в истории телевизионная программа с МКС, созданная совместно с Роскосмосом.
Ведущие программы Егор и Катя мечтают полететь в космос, но для этого им нужно пройти специальную подготовку и сдать экзамен по теоретической части. В начале каждого выпуска ребята находятся в виртуальном центре подготовки полетов и получают специальное задание: им нужно правильно ответить на вопрос на космическую тему. В качестве подсказки ребятам дается несколько вариантов ответов.
Отвечая на вопрос, Катя и Егор очень боятся дать неверный ответ, потому что у них нет права на ошибку. Ведущие тщательно проверяют каждую версию с помощью экспериментов и общения со специалистами, связываются с МКС и могут получить одну подсказку от космонавтов с орбиты.
Сэмпл: http://multi-up.com/1117929
Ссылка на предыдущие и альтернативные раздачи: http://cybertorrent.ru/tracker.php?nm=%D0%9F%D0%BE%D1%80%D0%B0%20%D0%B2%20%D0...0%BC%D0%BE%D1%81!
Релиз:
качество: SATRip
формат: AVI
Видео: 640x480, 25 fps, XviD build 64 ~1400 kbps avg, 0.18 bit/pixel
Аудио: 48 kHz, MPEG Layer 3, 2 ch, ~128.00 kbps avg

Список выпусков/серий

111 Сколько комет в этом году(2013) можно увидеть с Земли невооружённым глазом
112 Как будут добывать электроэнергию люди, прилетев на Марс
113 Как избежать столкновения космической станции с мусором
114 Нужен ли космический мотоцикл на орбите
115 Зачем космонавтам «Форель»
116 Есть у ли приборов на космической станции дублеры
117 Из какого материала сделана защита спускаемого аппарата
118 В каком случае может сработать система аварийного спасения космонавтов
119 Почему космодромы строят ближе к экватору
120 Может ли спускаемый аппарат космического корабля «Союз» после приземления снова полететь в космос
121 Что должны знать и уметь космонавты
122 В какой части космического корабля находится стыковочный узел
123 Чем отличается обратная сторона Луны от видимой
124 Чем будет отличаться новый российский космический корабль от нынешнего «Союза»
125 Что делали 100 лет назад на заводе, который сейчас выпускает космические ракеты
126 Должны ли космические туристы проходить такую же физподготовку, как космонавты
127 Что такое телеметрия
128 Зачем нужно сдувать пылинки с частей ракеты
129 Что помогает кораблю снизить скорость перед приземлением
130 Как разрабатывался маршрут движения «Лунохода-2»
131 Зачем деталям космического аппарата нужно золотистое покрытие
132 Могут ли дети придумать идею для научного эксперимента в условиях невесомости
133 Можно ли вырастить цветы из семян, которые были в космосе
134 Можно ли слышать звуки в открытом космосе
136 Какого тренажера нет на космической станции
137 Какие новогодние традиции соблюдаются на МКС
143 Подготовка к старту
144 Откуда прилетел на Землю Челябинский метеорит
145 Какие преимущества в космосе есть у женщин
146 Какие животные побывали в космосе
147 Где космонавты хранят свою одежду на МКС
148 Как невесомость влияет на человека
149 Мифы о космосе
01.11.2016 добавлены 13 выпусков:
111 Сколько комет в этом году(2013) можно увидеть с Земли невооружённым глазом
113 Как избежать столкновения космической станции с мусором
120 Может ли спускаемый аппарат космического корабля «Союз» после приземления снова полететь в космос
122 В какой части космического корабля находится стыковочный узел
126 Должны ли космические туристы проходить такую же физподготовку, как космонавты
131 Зачем деталям космического аппарата нужно золотистое покрытие
134 Можно ли слышать звуки в открытом космосе
137 Какие новогодние традиции соблюдаются на МКС
143 Подготовка к старту
144 Откуда прилетел на Землю Челябинский метеорит
146 Какие животные побывали в космосе
147 Где космонавты хранят свою одежду на МКС
148 Как невесомость влияет на человека

MediaInfo

Полное имя : D:\01 РАЗДАЧИ ШОУ\Пора в космос 110-149\Пора_в_космос_2\112 Как будут добывать электроэнергию люди, прилетев на Марс.avi
Формат : AVI
Формат/Информация : Audio Video Interleave
Размер файла : 170 Мбайт
Продолжительность : 15 м.
Общий поток : 1537 Кбит/сек
Программа кодирования : Lavf54.63.100
Видео
Идентификатор : 0
Формат : MPEG-4 Visual
Профиль формата : Simple@L3
Параметр BVOP формата : Нет
Параметр QPel формата : Нет
Параметр GMC формата : Без точки перехода
Параметр матрицы формата : Default (H.263)
Идентификатор кодека : XVID
Идентификатор кодека/Подсказка : XviD
Продолжительность : 15 м.
Битрейт : 1396 Кбит/сек
Ширина : 640 пикселей
Высота : 480 пикселей
Соотношение сторон : 4:3
Частота кадров : 25,000 кадров/сек
Цветовое пространство : YUV
Субдискретизация насыщенности : 4:2:0
Битовая глубина : 8 бит
Тип развёртки : Прогрессивная
Метод сжатия : С потерями
Бит/(Пиксели*Кадры) : 0.182
Размер потока : 155 Мбайт (91%)
Библиотека кодирования : XviD 64
Аудио
Идентификатор : 1
Формат : MPEG Audio
Версия формата : Version 1
Профиль формата : Layer 3
Идентификатор кодека : 55
Идентификатор кодека/Подсказка : MP3
Продолжительность : 15 м.
Вид битрейта : Постоянный
Битрейт : 128 Кбит/сек
Каналы : 2 канала
Частота : 48,0 КГц
Метод сжатия : С потерями
Размер потока : 14,2 Мбайт (8%)
Выравнивание : Соединение по промежуткам
Продолжительность промежутка : 24 мс. (0,60 видеокадр)
Время предзагрузки промежутка : 24 мс.

Скриншоты

[www.cybertorrent.ru].t2808.torrent 
Торрент: Зарегистрирован [ 2018-02-16 14:35 ] · 687C6CED6A04A87F71911C2D5752736FBEE17010

Скачать .torrent

Скачать

31 KB

Статус: проверено
Скачан: 0 раз
Размер: 5,34 GB
Профиль [ЛС]
Показать сообщения:    

Текущее время: 18-Окт 09:52

Часовой пояс: UTC ± 0



Вы не можете начинать темы
Вы не можете отвечать на сообщения
Вы не можете редактировать свои сообщения
Вы не можете удалять свои сообщения
Вы не можете голосовать в опросах
Вы не можете прикреплять файлы к сообщениям
Вы можете скачивать файлы
Torrents24.ru открытый BitTorrent Torrents24.pl открытый BitTorrent CyberTorrent.ru открытый BitTorrent BtList.ru рейтинг BitTorrent трекеров Яндекс.Метрика