Статистика раздачи
Размер:  8,2 GB   |    Зарегистрирован:  6 месяцев 1 день   |    Скачан:  0 раз

Полного источника не было: Никогда

 
   
 
 

krek ®

Пол:
Не указан
Стаж:
6 месяцев 2 дня
Сообщений:
83

Мобильный доспех Гандам: Исток / Kidou Senshi Gundam: The Origin / Mobile Suit Gundam: The Origin
Страна: Япония
Год выпуска: 2015 г.
Жанр: приключения, фантастика, меха
Тип: OVA
Продолжительность: 4 из 6х эпизодов по ~65 мин. серия
Режиссер: Иманиси Такаси
Студия: Sunrise
Описание: Предыстория всей Гандам-саги вселенского века, политика, борьба амбиций, попытки избежать войны и попытки вызвать войну, сломанные судьбы - всё это в "Мобильный доспех Гандам: Исток" aka Kidou Senshi Gundam: The Origin!
Доп. информация: Авторский перевод Kornel'я aka Alexander_SH1984 (в релиз также включены субтитры от AlexVector)
Качество: BDRip
Тип релиза: Без хардсаба
Формат видео: MKV
Релиз/Автор рипа: Anime Land (Omar)
Совместимость с бытовыми плеерами: Нет
Видео:x264 (10 bits), 1280x720, 23.976 fps, 2 170 Kbps
Аудио: DTS, 755 kbps, 48000 Hz, 6 ch Язык Японский
Субтитры: ass, встроенные Язык субтитров русский; Перевод 1: Kornel
Субтитры 2: 1-3 серии ass, встроенные Язык субтитров русский; Перевод 2: AlexVector

Все мои переводы на рутрекере:

ГАНДАМ: Объединение [ТВ] / Turn A Gundam [TV] [50 из 50] [Без хардсаба] [JAP, SUB] [1999 г., приключения, фантастика, меха, драма, DVDRip]
ГАНДАМ: Объединение (фильм первый) / Turn A Gundam: Earth Light (movie 1) / Turn A Gundam I: Chikyuu Kou [Movie] [1 из 1] [Без хардсаба] [JAP, SUB] [2002 г., Приключения, фантастика, меха, драма, BDRip]
ГАНДАМ: Объединение (фильм второй) / Turn A Gundam: Moonlight Butterfly (movie 2) / Turn A Gundam II: Gekkou Chou [Movie] [1 из 1] [Без хардсаба] [JAP, SUB] [2002 г., Приключения, фантастика, меха, драма, BDRip]
Мобильный воин Джи-ГАНДАМ / Mobile Fighter G Gundam / Kido Butoden G-Gundam [TV] [49 из 49] [Без хардсаба] [JAP, SUB] [1994 г., пародия, меха, фантастика, приключения, DVDRip]
Мобильный Гандам Икс / After War Gundam X / Kidou Shinseiki Gundam X / Mobile Suit Gundam X (Такамацу Синдзи) [TV][39 из 39][без хардсаба][JAP+SUB][1996 г., приключения, фантастика, романтика, меха, DVDRip]
Мобильный доспех Гандам: Исток / Kidou Senshi Gundam: The Origin / Mobile Suit Gundam: The Origin [OVA] [3 из 4] [Без хардсаба] [JAP, SUB] [2015, приключения, фантастика, меха, BDRip] [1080p]
Мобильный доспех Гандам: Исток / Kidou Senshi Gundam: The Origin / Mobile Suit Gundam: The Origin [OVA] [3 из 4] [Без хардсаба] [JAP, SUB] [2015, приключения, фантастика, меха, BDRip] [720p]
Космический рыцарь Теккамен / Space Knight Tekkaman / Uchuu no Kishi Tekkaman / Tekkaman: The Space Knight [TV] [26 из 26] [Без хардсаба] [JAP] [1975 г., приключения, фантастика, меха, DVDRip]
Космический рыцарь Теккамен Блейд [ТВ] / Star Knight Tekkaman Blade / Uchuu no Kishi Tekkaman Blade/ Uchu no Kishi Tekkaman Blade [TV] [49 из 49] [Без хардсаба] [JAP, SUB] [1992 г., приключения, фантастика, меха, DVDRip]
Род: Синие / Blue Gender / Синяя порода [TV] [26 из 26] [SP] [7 из 7] [Без хардсаба] [JAP+SUB] [1999 г., приключения, меха, фантастика, драма, DVDRip]
Легенда о героях Галактики OVA-3 / Legend of Galactic Heroes: Spiral Labyrinth / Ginga Eiyuu Densetsu: Rasen Meikyuu / Legend of the Galactic Heroes - Gaiden 2 [OVA] [28 из 28] [Без хардсаба] [JAP+SUB] [1999 г., приключения, фантастика, драма, BDRip]
ПОЛНЫЙ список аниме GUNDAM на трекере

Подробные тех. данные

Общее
Уникальный идентификатор : 232651310445055143121013076735734577409 (0xAF070335BC9551A583BC952EA4EBF901)
Полное имя : G:\Mobile Suit Gundam The Origin 720 [rus sub by Kornel]\Mobile Suit Gundam The Origin 01 [rus sub by Kornel][Bluray 720p Hi10P by Anime Land].mkv
Формат : Matroska
Версия формата : Version 4 / Version 2
Размер файла : 1,29 Гбайт
Продолжительность : 1 ч. 2 м.
Общий поток : 2927 Кбит/сек
Дата кодирования : UTC 2016-10-26 01:37:51
Программа кодирования : mkvmerge v9.5.0 ('Quiet Fire') 32bit
Библиотека кодирования : libebml v1.3.4 + libmatroska v1.4.5
Видео
Идентификатор : 1
Формат : AVC
Формат/Информация : Advanced Video Codec
Профиль формата : High 10@L5
Параметр CABAC формата : Да
Параметр ReFrames формата : 16 кадров
Идентификатор кодека : V_MPEG4/ISO/AVC
Продолжительность : 1 ч. 2 м.
Битрейт : 2170 Кбит/сек
Ширина : 1280 пикселей
Высота : 720 пикселей
Соотношение сторон : 16:9
Режим частоты кадров : Постоянный
Частота кадров : 23,976 (24000/1001) кадра/сек
Цветовое пространство : YUV
Субдискретизация насыщенности : 4:2:0
Битовая глубина : 10 бит
Тип развёртки : Прогрессивная
Бит/(Пиксели*Кадры) : 0.098
Размер потока : 978 Мбайт (74%)
Заголовок : H264 Hi10P 720p By Omar
Библиотека кодирования : x264 core 133 r2334 a3ac64b
Настройки программы : cabac=1 / ref=16 / deblock=1:-1:-1 / analyse=0x3:0x133 / me=umh / subme=10 / psy=1 / psy_rd=1.00:0.00 / mixed_ref=1 / me_range=24 / chroma_me=1 / trellis=2 / 8x8dct=1 / cqm=0 / deadzone=21,11 / fast_pskip=0 / chroma_qp_offset=-2 / threads=12 / lookahead_threads=3 / sliced_threads=0 / nr=0 / decimate=1 / interlaced=0 / bluray_compat=0 / constrained_intra=0 / bframes=10 / b_pyramid=2 / b_adapt=2 / b_bias=0 / direct=3 / weightb=1 / open_gop=0 / weightp=2 / keyint=250 / keyint_min=23 / scenecut=40 / intra_refresh=0 / rc_lookahead=60 / rc=crf / mbtree=1 / crf=15.0 / qcomp=0.60 / qpmin=0 / qpmax=81 / qpstep=4 / ip_ratio=1.40 / aq=2:1.00
Язык : Japanese
Default : Да
Forced : Нет
Аудио
Идентификатор : 2
Формат : DTS
Формат/Информация : Digital Theater Systems
Режим : 16
Параметр Endianness формата : Big
Идентификатор кодека : A_DTS
Продолжительность : 1 ч. 2 м.
Вид битрейта : Постоянный
Битрейт : 755 Кбит/сек
Каналы : 6 каналов
Расположение каналов : Front: L C R, Side: L R, LFE
Частота : 48,0 КГц
Частота кадров : 93,750 кадра/сек (512 spf)
Битовая глубина : 24 бит
Метод сжатия : С потерями
Размер потока : 340 Мбайт (26%)
Заголовок : DTS 768 Kbps 5.1 By Omar
Язык : Japanese
Default : Да
Forced : Нет
Текст #1
Идентификатор : 3
Формат : ASS
Идентификатор кодека : S_TEXT/ASS
Идентификатор кодека/Информация : Advanced Sub Station Alpha
Продолжительность : 1 ч. 2 м.
Битрейт : 141 бит/сек
Count of elements : 793
Метод сжатия : Без потерь
Размер потока : 65,2 Кбайт (0%)
Заголовок : by Kornel
Default : Да
Forced : Нет
Текст #2
Идентификатор : 4
Формат : ASS
Идентификатор кодека : S_TEXT/ASS
Идентификатор кодека/Информация : Advanced Sub Station Alpha
Продолжительность : 1 ч. 2 м.
Битрейт : 138 бит/сек
Count of elements : 797
Метод сжатия : Без потерь
Размер потока : 63,9 Кбайт (0%)
Заголовок : by AlexVector
Default : Нет
Forced : Нет

Список эпизодов

I. Голубоглазый Касвал
II. Печаль Артезии
III. Заря восстания
IV. Канун Грядущего

Отличия

Там - http://cybertorrent.ru/viewtopic.php?t=5280724 - 1080р, здесь - 720
[www.cybertorrent.ru].t2804.torrent 
Торрент: Зарегистрирован [ 2018-02-16 14:35 ] · 4F33F20C87EF1A595CE25D4D122753D32CFDE586

Скачать .torrent

Скачать

21 KB

Статус: проверено
Скачан: 0 раз
Размер: 8,2 GB
Профиль [ЛС]
Показать сообщения:    

Текущее время: 18-Авг 06:15

Часовой пояс: UTC ± 0



Вы не можете начинать темы
Вы не можете отвечать на сообщения
Вы не можете редактировать свои сообщения
Вы не можете удалять свои сообщения
Вы не можете голосовать в опросах
Вы не можете прикреплять файлы к сообщениям
Вы можете скачивать файлы
Torrents24.ru открытый BitTorrent Torrents24.pl открытый BitTorrent CyberTorrent.ru открытый BitTorrent BtList.ru рейтинг BitTorrent трекеров Яндекс.Метрика