Статистика раздачи
Размер:  16,02 GB   |    Зарегистрирован:  6 месяцев 3 дня   |    Скачан:  0 раз

Полного источника не было: Никогда

 
   
 
 

lom ®

Пол:
Не указан
Стаж:
6 месяцев 5 дней
Сообщений:
165

Наруто Фильм 5: Ураганные Хроники Наруто
Naruto Movie 5: Gekijouban Naruto Shippuuden Naruto the Movie 2: Kizuna
Наруто: Узы

-Страна: Япония
Год выпуска: 2008 г.
Жанр: приключения, боевые искусства, сёнэн
Тип: Movie
Продолжительность: 93 мин
Режиссёр: Камэгаки Хадзимэ
Снято по манге: Naruto
Автор оригинала: Кисимото Масаси-Описание: Фильм начинается с нападения давно вымершей страны на Коноху. Невиданные разрушения и огромное количество погибших – вот, что принесла эта атака. Наруто стремится защитить свою деревню от нападения, но его сбивает с толку встреча с таинственым стариком-доктором, который успешно во время боя, лечит раненых.
Позже Наруто встречает ученика, того самого старика, и решает ему помочь в спасении его деревни от нападения тех же, неизвестных ниндзя. В компании Сакуры и Хинаты они проделывают сложный путь для достижения своей цели, где по пути встречают немало «сюрпризов», боли и разочарований…
Наруто борется за правду, за связь между учителем и учеником, а также, встречая Саске, дает себе обещание вернуть его обратно в Коноху…-Доп. информация: Семпл: ссылка
За русские озвучки спасибо NIKITOS и CrazyKeeper-Качество: BDRemux
Тип релиза: Без хардсаба
Формат видео: MKV
Видео: x264 (8bit), 1920x1080, 19.7 Mbit, 23,976 fps
Аудио 1: DTS-MA, 2178 kbps, 48 Khz, 6 ch Язык ; Озвучка: оригинал
Аудио 2: DTS-MA, 2162 kbps, 48 Khz, 6 ch Язык ; Озвучка: дубляж
Аудио 3: AAC, 192 kbps, 48 Khz, 2 ch Язык (в составе контейнера) ; Озвучка (Одноголосная): NIKITOS from SHiZA
Аудио 4: MP3, 320 kbps, 48 Khz, 2 ch Язык (в составе контейнера) ; Озвучка (Двуголосная закадровая): CrazyKeeper & Kir4ik88
Субтитры: Rus [BST], Eng, Ger

Подробные тех. данные

Общее
Уникальный идентификатор : 178236414780654936812029244372831535757 (0x861715B81D8DAA9B96124AB6BE7D828D)
Полное имя : E:\Naruto Shippuuden The Movie - Bonds.BDRemux.2xRus.JAP.mkv
Формат : Matroska
Версия формата : Version 4 / Version 2
Размер файла : 16,0 Гбайт
Продолжительность : 1 ч. 38 м.
Режим общего битрейта : Переменный
Общий поток : 23,2 Мбит/сек
Дата кодирования : UTC 2016-09-04 14:56:07
Программа кодирования : mkvmerge v9.4.0 ('Knurl') 64bit
Библиотека кодирования : libebml v1.3.4 + libmatroska v1.4.5
Видео
Идентификатор : 1
Формат : AVC
Формат/Информация : Advanced Video Codec
Профиль формата : High@L4.1
Параметр CABAC формата : Да
Параметр ReFrames формата : 4 кадра
Идентификатор кодека : V_MPEG4/ISO/AVC
Продолжительность : 1 ч. 33 м.
Вид битрейта : Переменный
Битрейт : 19,7 Мбит/сек
Максимальный битрейт : 35,0 Мбит/сек
Ширина : 1920 пикселей
Высота : 1080 пикселей
Соотношение сторон : 16:9
Режим частоты кадров : Постоянный
Частота кадров : 23,976 (24000/1001) кадра/сек
Стандарт вещания : NTSC
Цветовое пространство : YUV
Субдискретизация насыщенности : 4:2:0
Битовая глубина : 8 бит
Тип развёртки : Прогрессивная
Бит/(Пиксели*Кадры) : 0.397
Размер потока : 12,8 Гбайт (80%)
Default : Да
Forced : Нет
Цветовой диапазон : Limited
Основные цвета : BT.709
Характеристики трансфера : BT.709
Коэффициенты матрицы : BT.709
Аудио #1
Идентификатор : 2
Формат : DTS
Формат/Информация : Digital Theater Systems
Профиль формата : MA / Core
Режим : 16
Параметр Endianness формата : Big
Идентификатор кодека : A_DTS
Продолжительность : 1 ч. 33 м.
Вид битрейта : Переменный / Постоянный
Битрейт : 2178 Кбит/сек / 1509 Кбит/сек
Каналы : 6 каналов
Расположение каналов : Front: L C R, Side: L R, LFE
Частота : 48,0 КГц
Частота кадров : 93,750 кадра/сек (512 spf)
Битовая глубина : 16 бит
Метод сжатия : Без потерь / Lossy
Размер потока : 1,42 Гбайт (9%)
Язык : Japanese
Default : Нет
Forced : Нет
Аудио #2
Идентификатор : 3
Формат : DTS
Формат/Информация : Digital Theater Systems
Профиль формата : MA / Core
Режим : 16
Параметр Endianness формата : Big
Идентификатор кодека : A_DTS
Продолжительность : 1 ч. 33 м.
Вид битрейта : Переменный / Постоянный
Битрейт : 2162 Кбит/сек / 1509 Кбит/сек
Каналы : 6 каналов
Расположение каналов : Front: L C R, Side: L R, LFE
Частота : 48,0 КГц
Частота кадров : 93,750 кадра/сек (512 spf)
Битовая глубина : 16 бит
Метод сжатия : Без потерь / Lossy
Размер потока : 1,41 Гбайт (9%)
Язык : German
Default : Нет
Forced : Нет
Аудио #3
Идентификатор : 4
Формат : AAC
Формат/Информация : Advanced Audio Codec
Профиль формата : LC
Идентификатор кодека : A_AAC
Продолжительность : 1 ч. 38 м.
Битрейт : 192 Кбит/сек
Каналы : 2 канала
Расположение каналов : Front: L R
Частота : 48,0 КГц
Частота кадров : 46,875 кадров/сек (1024 spf)
Метод сжатия : С потерями
Задержка видео : 9 мс.
Размер потока : 133 Мбайт (1%)
Заголовок : NIKITOS from SHiZA
Язык : Russian
Default : Да
Forced : Да
Аудио #4
Идентификатор : 5
Формат : MPEG Audio
Версия формата : Version 1
Профиль формата : Layer 3
Режим : Joint stereo
Идентификатор кодека : A_MPEG/L3
Идентификатор кодека/Подсказка : MP3
Продолжительность : 1 ч. 33 м.
Вид битрейта : Постоянный
Битрейт : 320 Кбит/сек
Каналы : 2 канала
Частота : 48,0 КГц
Частота кадров : 41,667 кадра/сек (1152 spf)
Метод сжатия : С потерями
Размер потока : 214 Мбайт (1%)
Заголовок : CrazyKeeper & Kir4ik88
Язык : Russian
Default : Нет
Forced : Нет
Текст #1
Идентификатор : 6
Формат : ASS
Идентификатор кодека : S_TEXT/ASS
Идентификатор кодека/Информация : Advanced Sub Station Alpha
Продолжительность : 1 ч. 30 м.
Битрейт : 111 бит/сек
Count of elements : 895
Метод сжатия : Без потерь
Размер потока : 74,4 Кбайт (0%)
Заголовок : BST
Язык : Russian
Default : Нет
Forced : Нет
Текст #2
Идентификатор : 7
Формат : VobSub
Режим смешивания : zlib
Идентификатор кодека : S_VOBSUB
Идентификатор кодека/Информация : Picture based subtitle format used on DVDs
Продолжительность : 1 ч. 30 м.
Битрейт : 3482 бит/сек
Count of elements : 927
Размер потока : 2,26 Мбайт (0%)
Язык : English
Default : Да
Forced : Нет
Текст #3
Идентификатор : 8
Формат : PGS
Режим смешивания : zlib
Идентификатор кодека : S_HDMV/PGS
Идентификатор кодека/Информация : Picture based subtitle format used on BDs/HD-DVDs
Продолжительность : 1 ч. 30 м.
Битрейт : 825 бит/сек
Count of elements : 122
Размер потока : 548 Кбайт (0%)
Язык : German
Default : Нет
Forced : Нет
Текст #4
Идентификатор : 9
Формат : PGS
Режим смешивания : zlib
Идентификатор кодека : S_HDMV/PGS
Идентификатор кодека/Информация : Picture based subtitle format used on BDs/HD-DVDs
Продолжительность : 1 ч. 30 м.
Битрейт : 9423 бит/сек
Count of elements : 1608
Размер потока : 6,11 Мбайт (0%)
Язык : German
Default : Нет
Forced : Нет

Отличия

http://cybertorrent.ru/viewtopic.php?t=4205518 BDRemux, альтернативная озвучка, русские сабы
http://cybertorrent.ru/viewtopic.php?t=4161905 BDRemux, альтернативная озвучка
http://cybertorrent.ru/viewtopic.php?t=4058909 BDRemux, альтернативная озвучка, русские сабы
http://cybertorrent.ru/viewtopic.php?t=3946294 BDRemux, альтернативная озвучка
http://cybertorrent.ru/viewtopic.php?t=3876592 BDRemux, альтернативная озвучка
http://cybertorrent.ru/viewtopic.php?t=2810343 BDRemux, альтернативная озвучка
http://cybertorrent.ru/viewtopic.php?t=1904985 BDRemux, альтернативная озвучка, русские сабы

Скриншоты




[www.cybertorrent.ru].t2801.torrent 
Торрент: Зарегистрирован [ 2018-02-16 14:35 ] · 0239047FFD2162A0BF93DAEA33871AC9CF723DBC

Скачать .torrent

Скачать

21 KB

Статус: проверено
Скачан: 0 раз
Размер: 16,02 GB
Профиль [ЛС]
Показать сообщения:    

Текущее время: 20-Авг 12:15

Часовой пояс: UTC ± 0



Вы не можете начинать темы
Вы не можете отвечать на сообщения
Вы не можете редактировать свои сообщения
Вы не можете удалять свои сообщения
Вы не можете голосовать в опросах
Вы не можете прикреплять файлы к сообщениям
Вы можете скачивать файлы
Torrents24.ru открытый BitTorrent Torrents24.pl открытый BitTorrent CyberTorrent.ru открытый BitTorrent BtList.ru рейтинг BitTorrent трекеров Яндекс.Метрика