Статистика раздачи
Размер:  2,5 GB   |    Зарегистрирован:  8 месяцев 3 дня   |    Скачан:  0 раз

Полного источника не было: Никогда

 
   
 
 

firebird ®

Пол:
Не указан
Стаж:
8 месяцев 4 дня
Сообщений:
335

-Покемон: Фильм 8 - Лукарио и Тайна Мью
Pokemon: The Movie 8 - Lucario and the Mystery of Mew
[FHD 1080p] [HD 720p]- Страна: Япония / США
Год выпуска: 16 июля 2005 года
Жанр: детский, комедия, приключения, фэнтези.
Тип: Movie
Продолжительность: 100 мин
Режиссер: Кунихико Юяма
Студия: OLM
-Описание:
Говорят, что сотни лет назад Страж Ауры – Аарон – использовал силу Древа Начала, чтобы остановить великую битву. Теперь во дворце Камарон собираются жители города на фестиваль в честь этого героя. И Эш с друзьями пришли как раз вовремя! Эш и Пикачу принимают участие в турнире и побеждают! В этом году Эш становится почётным Хранителем Ауры. Но, когда Эш и Пикачу начинают отмечать победу, появляется Легендарный Покемон психического типа Мью и уводит Пикачу! И это только начало. Ведь пробуждается Покемон Стража Ауры Лукарио и отправляет Эша на поиски Древа Начала.(c)pokemon.com-Информация о релизе:
BDRip, сведение звука: LightEssence
Дубляж:
SDI Media (WEBRip: pokemon.com)
Многоголосая озвучка и Субтитры:
TeamGliger (Ричард2323, sim_emrom, Recart, Pika-Pika; перевод: Recart, Andron1818)-Качество: BDRip | Тип релиза: Без хардсаба | Формат видео: MKV
Релиз/Автор рипа: LightEssence
Совместимость с бытовыми плеерами: Нет-Обновление от 09.07.2017
Видео: x264(8bit), 1280х720, 3000 kbps, 23.976 fps(NTSC)
в составе контейнера:
Аудио 1: AC3, 192kbps, 48kHz, 2ch - Русский; Озвучка 1: [DUB] - Многоголосый, Дублированный [SDI Media]
Аудио 2: AC3, 192kbps, 48kHz, 2ch - Русский; Озвучка 2: [MVO] - Многоголосый, Закадровый [TeamGliger: Ричард2323, sim_emrom, Recart, Pika-Pika]
Аудио 3: AC3, 192kbps, 48kHz, 2ch - Английский; Озвучка 3: [DUB] - Многоголосый, Дублированный [Оригинал]
Субтитры 1: SRT, Русский - TeamGliger [перевод: Recart, Andron1818]
Субтитры 2: SRT, Английский - iTunes [SubRip by LightEssence]
-

Скриншоты

Подробные тех. данные

Код:General
Unique ID : 242584214120351797153026199031106919407 (0xB680052BE4976CD4A7264A64687A5BEF)
Complete name : F:\Покемон\Pokemon the Movie [720p]\08.Pokemon the Movie 8 - Lucario and the Mystery of Mew [BDRip-720p][LightEssence].mkv
Format : Matroska
Format version : Version 4 / Version 2
File size : 2.50 GiB
Duration : 1 h 39 min
Overall bit rate : 3 596 kb/s
Encoded date : UTC 2016-09-01 20:01:05
Writing application : mkvmerge v9.0.1 ('Obstacles') 64bit
Writing library : libebml v1.3.3 + libmatroska v1.4.4
Video
ID : 1
Format : AVC
Format/Info : Advanced Video Codec
Format profile : High@L4
Format settings, CABAC : Yes
Format settings, ReFrames : 6 frames
Codec ID : V_MPEG4/ISO/AVC
Duration : 1 h 39 min
Bit rate : 3 000 kb/s
Width : 1 280 pixels
Height : 720 pixels
Display aspect ratio : 16:9
Frame rate mode : Constant
Frame rate : 23.976 FPS
Color space : YUV
Chroma subsampling : 4:2:0
Bit depth : 8 bits
Scan type : Progressive
Bits/(Pixel*Frame) : 0.136
Stream size : 2.10 GiB (84%)
Title : Pokemon the Movie 8 - Lucario and the mystery of Mew - 2005 BDRip - [LightEssence][720p]
Writing library : x264 core 146 r2538 121396c
Encoding settings : cabac=1 / ref=6 / deblock=1:1:1 / analyse=0x3:0x113 / me=umh / subme=10 / psy=1 / psy_rd=0.40:0.00 / mixed_ref=1 / me_range=24 / chroma_me=1 / trellis=2 / 8x8dct=1 / cqm=0 / deadzone=21,11 / fast_pskip=0 / chroma_qp_offset=-2 / threads=12 / lookahead_threads=1 / sliced_threads=0 / nr=0 / decimate=1 / interlaced=0 / bluray_compat=0 / constrained_intra=0 / bframes=5 / b_pyramid=2 / b_adapt=2 / b_bias=0 / direct=1 / weightb=1 / open_gop=0 / weightp=2 / keyint=250 / keyint_min=23 / scenecut=40 / intra_refresh=0 / rc_lookahead=60 / rc=abr / mbtree=1 / bitrate=3000 / ratetol=1.0 / qcomp=0.60 / qpmin=0 / qpmax=69 / qpstep=4 / vbv_maxrate=14000 / vbv_bufsize=14000 / nal_hrd=none / filler=0 / ip_ratio=1.40 / aq=1:0.60
Language : English
Default : Yes
Forced : No
Color range : Limited
Color primaries : BT.709
Transfer characteristics : BT.709
Matrix coefficients : BT.709
Audio #1
ID : 2
Format : AC-3
Format/Info : Audio Coding 3
Mode extension : CM (complete main)
Format settings, Endianness : Big
Codec ID : A_AC3
Duration : 1 h 39 min
Bit rate mode : Constant
Bit rate : 192 kb/s
Channel(s) : 2 channels
Channel positions : Front: L R
Sampling rate : 48.0 kHz
Frame rate : 31.250 FPS (1536 spf)
Compression mode : Lossy
Stream size : 137 MiB (5%)
Title : RUS [DUB] - (многоголосый, дублированный) [SDI Media]
Language : Russian
Default : Yes
Forced : No
Audio #2
ID : 3
Format : AC-3
Format/Info : Audio Coding 3
Mode extension : CM (complete main)
Format settings, Endianness : Big
Codec ID : A_AC3
Duration : 1 h 39 min
Bit rate mode : Constant
Bit rate : 192 kb/s
Channel(s) : 2 channels
Channel positions : Front: L R
Sampling rate : 48.0 kHz
Frame rate : 31.250 FPS (1536 spf)
Compression mode : Lossy
Stream size : 137 MiB (5%)
Title : RUS [MVO] - (многоголосый, закадровый) [TeamGliger - Ричард2323, sim_emrom, Recart, Pika-Pika]
Language : Russian
Default : No
Forced : No
Audio #3
ID : 4
Format : AC-3
Format/Info : Audio Coding 3
Mode extension : CM (complete main)
Format settings, Endianness : Big
Codec ID : A_AC3
Duration : 1 h 39 min
Bit rate mode : Constant
Bit rate : 192 kb/s
Channel(s) : 2 channels
Channel positions : Front: L R
Sampling rate : 48.0 kHz
Frame rate : 31.250 FPS (1536 spf)
Compression mode : Lossy
Stream size : 137 MiB (5%)
Title : ENG [DUB]
Language : English
Default : No
Forced : No
Text #1
ID : 5
Format : UTF-8
Codec ID : S_TEXT/UTF8
Codec ID/Info : UTF-8 Plain Text
Duration : 1 h 34 min
Bit rate : 61 b/s
Count of elements : 952
Stream size : 42.4 KiB (0%)
Title : RUS [SUB] - TeamGliger [Перевод: Recart, Andron1818]
Language : Russian
Default : No
Forced : No
Text #2
ID : 6
Format : UTF-8
Codec ID : S_TEXT/UTF8
Codec ID/Info : UTF-8 Plain Text
Duration : 1 h 39 min
Bit rate : 57 b/s
Count of elements : 1764
Stream size : 41.6 KiB (0%)
Title : ENG [SUB] - iTunes [SubRip by LightEssence]
Language : English
Default : No
Forced : No

Отличия

DVDRip [Andron1818] - BDRip, 720p
DVDRip [Recart] - BDRip, 720p
DVDRip [Slink] - BDRip, 720p
DVDRip [Slink] - BDRip, 720p
BDRip 1080p [LightEssence] - 720p
-Внимание!!!
Если торрент не видит анонсеры рутрекера и не видит сидов (раздача выделена красным цветом в uTorrent) рекомендую воспользоваться этой или другими инструкциями по обходу блокировки
[www.cybertorrent.ru].t2792.torrent 
Торрент: Зарегистрирован [ 2018-02-16 14:35 ] · 7DB20C32A7D227D5CCD4799CF57F071A085506B5

Скачать .torrent

Скачать

13 KB

Статус: проверено
Скачан: 0 раз
Размер: 2,5 GB
Профиль [ЛС]
Показать сообщения:    

Текущее время: 20-Окт 03:04

Часовой пояс: UTC ± 0



Вы не можете начинать темы
Вы не можете отвечать на сообщения
Вы не можете редактировать свои сообщения
Вы не можете удалять свои сообщения
Вы не можете голосовать в опросах
Вы не можете прикреплять файлы к сообщениям
Вы можете скачивать файлы
Torrents24.ru открытый BitTorrent Torrents24.pl открытый BitTorrent CyberTorrent.ru открытый BitTorrent BtList.ru рейтинг BitTorrent трекеров Яндекс.Метрика