Статистика раздачи
Размер:  3,57 GB   |    Зарегистрирован:  4 месяца 2 дня   |    Скачан:  0 раз

Полного источника не было: Никогда

 
   
 
 

firebird ®

Пол:
Не указан
Стаж:
4 месяца 3 дня
Сообщений:
37

-Покемон 3 - Заклятие Аноунов
Pokemon 3: The Movie - The Spell of Unown
[FHD 1080p][HD 720p]-Pokemon the Movie [FHD 1080p]:|1| |2| |3| |4| |5| |6| |7| |8| |9| |10| |11| |12| |13| |14b и 14w| |15| |16| |17| |18| |19| |20|- Страна: Япония / США
Год выпуска: 8 июля 2000 г.
Жанр: детский, комедия, приключения, фэнтези.
Тип: Movie
Продолжительность: 73 мин
Режиссер: Кунихико Юяма
Студия: OLM
-Описание:
В Гринфилде настоящая катастрофа. Эш и Пикачу с друзьями должны придумать, как вернуть покой в некогда прекрасный город. Но тут случается невероятное. Маму Эша похищает могучий Энтей – Покемон, который, как считалось раньше, существовал только в легендах. Эш должен спасти маму любой ценой. Но он и понятия не имеет, какой невероятный поворот событий его ожидает! Как, например, секретное открытие молодой девушки, чьи сны стали кошмарной действительностью под воздействием загадочного и ужасного Аноуна!(c)pokemon.com-Информация о релизе:
BDRip, сведение звука: LightEssence
Дубляж:
Мост Видео (Лицензионный диск: Bobroid)
Авторская озвучка:
Сергей Визгунов (Захват звука VHS: ALEKS KV)-Качество: BDRip | Тип релиза: Без хардсаба | Формат видео: MKV
Релиз/Автор рипа: LightEssence
Совместимость с бытовыми плеерами: Нет-Обновление от 08.10.2017
Видео: x264(8bit), 1920х1080, 6000 kbps, 23.976 fps(NTSC)
в составе контейнера:
Аудио 1: AC3, 384kbps, 48kHz, 6ch - Английский; Озвучка 1: [DUB] - Многоголосый, Дублированный [Оригинал]
внешними файлами:
Аудио 2: AC3, 384kbps, 48kHz, 6ch - Русский; Озвучка 2: [DUB] - Многоголосый, Дублированный [Мост Видео]
Аудио 3: AC3, 192kbps, 48kHz, 2ch - Русский; Озвучка 3: [AVO] - Одноголосый, Закадровый [Сергей Визгунов]
Субтитры 1: SRT, Русский - SOFTITLER [SubRip by LightEssence]
Субтитры 2: SRT, Английский - SOFTITLER [SubRip by LightEssence]-

Как подключить внешнее аудио и субтитры

Для просмотра на ПК
с озвучкой: переместите нужные mka файлы из папки "Russian Sound -> [наименование озвучки]" в папку с видео.
с субтитрами: переместите srt файл из папки "Russian Sub" или "English Sub", в папку с видео.
-

Скриншоты

Подробные тех. данные

Код:General
Unique ID : 210614187923610406945581470757266106806 (0x9E72D12F01428A51B3231A998203A9B6)
Complete name : F:\Покемон\Pokemon the Movie [1080p]\03. Pokemon 3 The Movie [BDRip-1080p]\03.Pokemon 3 The Movie - The Spell of Unown [BDRip-1080p][LightEssence].mkv
Format : Matroska
Format version : Version 4 / Version 2
File size : 3.28 GiB
Duration : 1 h 13 min
Overall bit rate : 6 393 kb/s
Encoded date : UTC 2017-10-08 16:54:41
Writing application : mkvmerge v16.0.0 ('Protest') 64-bit
Writing library : libebml v1.3.5 + libmatroska v1.4.8
Video
ID : 1
Format : AVC
Format/Info : Advanced Video Codec
Format profile : High@L4
Format settings, CABAC : Yes
Format settings, RefFrames : 4 frames
Codec ID : V_MPEG4/ISO/AVC
Duration : 1 h 13 min
Bit rate : 6 000 kb/s
Width : 1 920 pixels
Height : 1 080 pixels
Display aspect ratio : 16:9
Frame rate mode : Constant
Frame rate : 23.976 FPS
Color space : YUV
Chroma subsampling : 4:2:0
Bit depth : 8 bits
Scan type : Progressive
Bits/(Pixel*Frame) : 0.121
Stream size : 3.08 GiB (94%)
Title : Pokemon 3: The Movie - The Spell of Unown - 2000 BDRip - [LightEssence] [1080p]
Writing library : x264 core 146 r2538 121396c
Encoding settings : cabac=1 / ref=3 / deblock=1:0:0 / analyse=0x3:0 / me=dia / subme=1 / psy=1 / psy_rd=1.00:0.00 / mixed_ref=0 / me_range=16 / chroma_me=1 / trellis=1 / 8x8dct=1 / cqm=0 / deadzone=21,11 / fast_pskip=1 / chroma_qp_offset=0 / threads=12 / lookahead_threads=2 / sliced_threads=0 / nr=0 / decimate=1 / interlaced=0 / bluray_compat=0 / constrained_intra=0 / bframes=3 / b_pyramid=2 / b_adapt=1 / b_bias=0 / direct=1 / weightb=1 / open_gop=0 / weightp=2 / keyint=250 / keyint_min=23 / scenecut=40 / intra_refresh=0 / rc_lookahead=40 / rc=abr / mbtree=1 / bitrate=6000 / ratetol=1.0 / qcomp=0.60 / qpmin=0 / qpmax=69 / qpstep=4 / ip_ratio=1.40 / aq=1:1.00
Language : English
Default : Yes
Forced : No
Color range : Limited
Color primaries : BT.709
Transfer characteristics : BT.709
Matrix coefficients : BT.709
Audio
ID : 2
Format : AC-3
Format/Info : Audio Coding 3
Format settings, Endianness : Big
Codec ID : A_AC3
Duration : 1 h 13 min
Bit rate mode : Constant
Bit rate : 384 kb/s
Channel(s) : 6 channels
Channel positions : Front: L C R, Side: L R, LFE
Sampling rate : 48.0 kHz
Frame rate : 31.250 FPS (1536 SPF)
Bit depth : 16 bits
Compression mode : Lossy
Stream size : 202 MiB (6%)
Language : English
Service kind : Complete Main
Default : No
Forced : No

Отличия

BDRip 720p [LightEssence] - 1080p
DVD [Bobroid] - BDRip, 1080p
DVDRip [cnauk] - BDRip, 1080p
WEBRip 720p [stitchix2] - BDRip, 1080p

Постер в оригинальном размере

Скачать
-Внимание!!!
Если торрент не видит анонсеры рутрекера и не видит сидов (раздача выделена красным цветом в uTorrent) рекомендую воспользоваться этой или другими инструкциями по обходу блокировки
[www.cybertorrent.ru].t2790.torrent 
Торрент: Зарегистрирован [ 2018-02-16 14:35 ] · 8965BBA512D5C93C7FFDAEFB16A08440A93AC374

Скачать .torrent

Скачать

19 KB

Статус: проверено
Скачан: 0 раз
Размер: 3,57 GB
Профиль [ЛС]
Показать сообщения:    

Текущее время: 18-Июн 20:48

Часовой пояс: UTC ± 0



Вы не можете начинать темы
Вы не можете отвечать на сообщения
Вы не можете редактировать свои сообщения
Вы не можете удалять свои сообщения
Вы не можете голосовать в опросах
Вы не можете прикреплять файлы к сообщениям
Вы можете скачивать файлы