Статистика раздачи
Размер:  8,78 GB   |    Зарегистрирован:  8 месяцев 3 дня   |    Скачан:  0 раз

Полного источника не было: Никогда

 
   
 
 

soda ®

Пол:
Не указан
Стаж:
8 месяцев 5 дней
Сообщений:
230

- Год выпуска: 2016
Страна: Япония, США
Жанры: фантастика, фэнтези, боевик, приключения, драма
Продолжительность: 115 мин.
Тип: полнометражный фильм-Перевод:

  • русские субтитры c Blu-ray EUR

  • английские субтитры с Blu-ray EUR
    -Озвучка:
  • Многоголосая, закадровая Студия Пифагор-Режиссер: Синдзи Арамаки
    Сценарий: Такаси Хасэгава
    Студия: Squre Enix & Sony Pictures
    В ролях: Аарон Пол, Лина Хиди, Шон Бин, Нейл Ньюбон, Аманда Пиери, Джон Кэмплинг, Адриан Буше, Liam Mulvey, Андреа Тивадар, Грег Блэкфорд-Описание: Волшебное королевство Люцис является домом для священного Кристалла, но враждебная империя Нифльхейм не остановится ни перед чем, чтобы захватить реликвию. Король Люциса Регис возглавляет элитный отряд солдат, именуемых «Кингсглейв». Вооружившись магией короля, Никс Ульрик и его верные товарищи из Кингсглейв становятся на защиту столицы Инсомния, чтобы остановить неумолимое наступление имперской армии.
    Перед превосходящими силами Нифльхейма Королю Регису ничего не остаётся, как согласиться на ультиматум, уступив все свои земли за пределами столицы и женив своего сына Ноктиса на Леди Лунафрее, бывшей принцессе ныне захваченной земли Тенебра.
    В разбушевавшейся войне махинации Нифльхейма превращают Инсомнию в грандиозное поле битвы, затягивая Никса в борьбу за выживание всего королевства.-Качество: BDRip
    Формат: MKV
    Тип видео: Без хардсаба
    Видео: x264 (8 bit), 8 700 Kbps, 1920x802 (2.40:1), 23.976 fps
    Аудио: - AC3, 640 Kbps, 48KHz, 6ch [Многоголосая, закадровая Студия Пифагор] (внутри контейнера)
    Аудио: - DTS, 1509 Kbps, 48KHz, 6ch

    Подробные тех. данные

    General
    Unique ID : 182976646331938700893104027428084252833 (0x89A8052DC167C24FA815442E113000A1)
    Complete name : F:\Аниме\Kingsglaive.Final.Fantasy.XV.2016.1080p.BDRip.Rus.Eng.kinozal.mkv
    Format : Matroska
    Format version : Version 4 / Version 2
    File size : 8.78 GiB
    Duration : 1h 55mn
    Overall bit rate : 10.9 Mbps
    Encoded date : UTC 2016-09-24 09:03:37
    Writing application : mkvmerge v7.2.0 ('On Every Street') 64bit built on Sep 13 2014 15:52:10
    Writing library : libebml v1.3.0 + libmatroska v1.4.1
    _STATISTICS_WRITING_APP : mkvmerge v7.2.0 ('On Every Street') 64bit built on Sep 13 2014 15:52:10
    _STATISTICS_WRITING_DATE_UTC : 2016-09-24 09:03:37
    _STATISTICS_TAGS : BPS DURATION NUMBER_OF_FRAMES NUMBER_OF_BYTES
    DURATION : 01:55:01.895000000
    NUMBER_OF_FRAMES : 2150
    NUMBER_OF_BYTES : 9490898
    Video
    ID : 1
    Format : AVC
    Format/Info : Advanced Video Codec
    Format profile : High@L4.1
    Format settings, CABAC : Yes
    Format settings, ReFrames : 5 frames
    Codec ID : V_MPEG4/ISO/AVC
    Duration : 1h 55mn
    Bit rate : 8 700 Kbps
    Width : 1 920 pixels
    Height : 802 pixels
    Display aspect ratio : 2.40:1
    Frame rate mode : Constant
    Frame rate : 23.976 fps
    Color space : YUV
    Chroma subsampling : 4:2:0
    Bit depth : 8 bits
    Scan type : Progressive
    Bits/(Pixel*Frame) : 0.236
    Stream size : 6.87 GiB (78%)
    Title : Кингсглейв: Последняя фантазия XV (2016)
    Writing library : x264 core 148 r2638 7599210
    Encoding settings : cabac=1 / ref=5 / deblock=1:-3:-3 / analyse=0x3:0x133 / me=umh / subme=10 / psy=1 / psy_rd=1.00:0.10 / mixed_ref=1 / me_range=48 / chroma_me=1 / trellis=2 / 8x8dct=1 / cqm=0 / deadzone=21,11 / fast_pskip=0 / chroma_qp_offset=-3 / threads=6 / lookahead_threads=1 / sliced_threads=0 / nr=0 / decimate=1 / interlaced=0 / bluray_compat=0 / constrained_intra=0 / bframes=5 / b_pyramid=2 / b_adapt=2 / b_bias=0 / direct=3 / weightb=1 / open_gop=0 / weightp=2 / keyint=240 / keyint_min=22 / scenecut=40 / intra_refresh=0 / rc_lookahead=40 / rc=2pass / mbtree=1 / bitrate=8700 / ratetol=1.0 / qcomp=0.60 / qpmin=10 / qpmax=51 / qpstep=4 / cplxblur=20.0 / qblur=0.5 / ip_ratio=1.40 / aq=1:1.00
    Language : English
    Default : No
    Forced : No
    _STATISTICS_WRITING_APP : mkvmerge v7.2.0 ('On Every Street') 64bit built on Sep 13 2014 15:52:10
    _STATISTICS_WRITING_DATE_UTC : 2016-09-24 09:03:37
    _STATISTICS_TAGS : BPS DURATION NUMBER_OF_FRAMES NUMBER_OF_BYTES
    DURATION : 01:55:33.969000000
    NUMBER_OF_FRAMES : 166249
    NUMBER_OF_BYTES : 7541024661
    Audio #1
    ID : 2
    Format : AC-3
    Format/Info : Audio Coding 3
    Mode extension : CM (complete main)
    Format settings, Endianness : Big
    Codec ID : A_AC3
    Duration : 1h 55mn
    Bit rate mode : Constant
    Bit rate : 640 Kbps
    Channel(s) : 6 channels
    Channel positions : Front: L C R, Side: L R, LFE
    Sampling rate : 48.0 KHz
    Bit depth : 16 bits
    Compression mode : Lossy
    Stream size : 529 MiB (6%)
    Title : AC3 (Многоголосый) Blu-ray EUR
    Language : Russian
    Default : Yes
    Forced : No
    Audio #2
    ID : 3
    Format : DTS
    Format/Info : Digital Theater Systems
    Mode : 16
    Format settings, Endianness : Big
    Codec ID : A_DTS
    Duration : 1h 55mn
    Bit rate mode : Constant
    Bit rate : 1 509 Kbps
    Channel(s) : 6 channels
    Channel positions : Front: L C R, Side: L R, LFE
    Sampling rate : 48.0 KHz
    Bit depth : 16 bits
    Compression mode : Lossy
    Stream size : 1.22 GiB (14%)
    Title : DTS (Оригинал)
    Language : English
    Default : No
    Forced : No
    Text #1
    ID : 4
    Format : PGS
    Muxing mode : zlib
    Codec ID : S_HDMV/PGS
    Codec ID/Info : The same subtitle format used on BDs/HD-DVDs
    Title : Русские
    Language : Russian
    Default : No
    Forced : No
    Text #2
    ID : 5
    Format : PGS
    Muxing mode : zlib
    Codec ID : S_HDMV/PGS
    Codec ID/Info : The same subtitle format used on BDs/HD-DVDs
    Title : Английские
    Language : English
    Default : No
    Forced : No
    Menu
    00:00:00.000 : en:1
    00:12:05.975 : en:2
    00:15:47.529 : en:3
    00:20:22.845 : en:4
    00:25:40.996 : en:5
    00:32:13.722 : en:6
    00:39:01.212 : en:7
    00:43:43.786 : en:8
    00:50:05.292 : en:9
    00:54:58.418 : en:10
    01:02:12.518 : en:11
    01:12:54.284 : en:12
    01:20:59.227 : en:13
    01:26:23.759 : en:14
    01:37:17.370 : en:15
    01:41:56.148 : en:16

    Скриншоты

    Отличия от других раздач

    от http://cybertorrent.ru/viewtopic.php?t=5285712 - там Blu-ray, тут BDRip 1080p
    [www.cybertorrent.ru].t2789.torrent 
    Торрент: Зарегистрирован [ 2018-02-16 14:35 ] · E838C77F6F6000A06F469E284A00DB3790EB2E8B

    Скачать .torrent

    Скачать

    44 KB

    Статус: проверено
    Скачан: 0 раз
    Размер: 8,78 GB
  • Профиль [ЛС]
    Показать сообщения:    

    Текущее время: 20-Окт 13:13

    Часовой пояс: UTC ± 0



    Вы не можете начинать темы
    Вы не можете отвечать на сообщения
    Вы не можете редактировать свои сообщения
    Вы не можете удалять свои сообщения
    Вы не можете голосовать в опросах
    Вы не можете прикреплять файлы к сообщениям
    Вы можете скачивать файлы
    Torrents24.ru открытый BitTorrent Torrents24.pl открытый BitTorrent CyberTorrent.ru открытый BitTorrent BtList.ru рейтинг BitTorrent трекеров Яндекс.Метрика