Статистика раздачи
Размер:  56,78 GB   |    Зарегистрирован:  4 месяца 4 дня   |    Скачан:  0 раз

Полного источника не было: Никогда

 
   
 
 

NINJA ®

Пол:
Не указан
Стаж:
4 месяца 5 дней
Сообщений:
84

Танцы (Полный третий сезон - 22 выпуска)
Дата/Год выпуска: 2016
Страна: Россия
Жанр: Танцевальное шоу
Продолжительность: 22 ~ 01:38:00
Перевод: Не требуется
Режиссер: Анатолий Шпульников
Телеканал: ТНТ
Описание: Новый сезон шоу "«ТАНЦЫ» на ТНТ: Включайся в движение!" - это яркий необычный сплав реалити-шоу и шоу талантов.
20 августа на ТНТ стартовал 3-й сезон самого масштабного танцевального шоу страны! Создатели обещают, что проект станет еще круче, ярче и мощнее: новые города, новые герои, новые «ТАНЦЫ»! География участников третьего сезона шоу «ТАНЦЫ» впечатляет! На телевизионные кастинги попали представители более 100 городов. И не только России, но и Прибалтики, Европы, Америки и даже Новой Зеландии. В «главных танцах страны», как называет шоу Сергей Светлаков, каждый сможет найти земляка и "поболеть" за него. Поддержка зрителей очень важна, ведь все участники мечтают услышать заветное - «Ты в «ТАНЦАХ»! Более 10 000 желающих прислали свои заявки на участие в 3 сезоне проекта. Зрителей ждет увлекательный и пестрый этап кастингов. Тяжелейшие испытания на отборе в команды к наставникам. Еженедельные грандиозные концерты. Закулисная жизнь и переживания финалистов. В шоу «ТАНЦЫ» окажутся только самые техничные танцовщики и неординарные персонажи.
Продюсеры Comedy Club Production и шоу «ТАНЦЫ» намекают на некоторые изменения правил проекта, однако пока держат информацию в тайне. Но можно с уверенностью сказать, что участникам предстоит пройти невероятно сложный и интересный путь:
1 этап: кастинги. По результатам отборов жюри распределит лучших танцовщиков по командам наставников;
2 этап: каждую неделю команды будут давать конкурсные концерты, поставленные лучшими хореографами страны. Зрители совместно с жюри будут выбирать по одному участнику из каждой команды, которые покинут проект;
Финал: четверо финалистов на большом гала-концерте выяснят, кто из них лучший и кто достоин приза в 3 000 000 рублей.
Мигель, наставник проекта «ТАНЦЫ»: «Я хочу набрать абсолютно неожиданных людей, полностью поменять концепцию своей команды и подход к участникам. Не будет никаких клише или стереотипов, что если танцовщик странный, он сразу же будет у меня».
Егор Дружинин, наставник проекта «ТАНЦЫ»: «С легким недоумением вынужден констатировать, что начинаю искать не только тех, кто лишь хорошо танцует, но и тех, кто интереснее и ярче вне сцены, тех, кого быстрее запомнят зрители. Без таких «странных личностей» победы в этом сезоне моей команде не видать».
Ляйсан Утяшева, ведущая шоу «ТАНЦЫ»: «Мне, прежде всего, хочется увидеть людей, которые не будут аккуратничать, дабы про них плохо не писали в социальных сетях, а будут настоящими. Пусть они неправильно что-то скажут, но скажут от души, не надевая масок. У нас шоу о настоящих эмоциях, танцах и людях».
Новые герои, новые танцы, новые впечатления! Включайся в движение!
качество: WEB-DL 720p
формат: MKV
Видео: H.264, ~3800 kbit/s, 1280x720, 16:9, 25.00 fps
Аудио: AC-3, 192 kbit/s, 44100 Hz, stereo

Список выпусков

Выпуск 01. Кастинг в Екатеринбурге. Эфир 20.08.2016
Выпуск 02. Кастинг в Калининграде. Эфир 27.08.2016
Выпуск 03. Кастинг в Красноярске. Эфир 03.09.2016
Выпуск 04. Кастинг в Казани. Эфир 10.09.2016
Выпуск 05. Кастинг в Ростове-на-Дону. Эфир 17.09.2016
Выпуск 06. Кастинг в Санкт-Петербурге. Эфир 24.09.2016
Выпуск 07. Кастинг в шести городах. Часть первая. Эфир 01.10.2016
Выпуск 08. Кастинг в Москве. День первый. Эфир 08.10.2016
Выпуск 09. Кастинг в Москве. День второй. Эфир 15.10.2016
Выпуск 10. Кастинг в Москве. Дополнительный выпуск. Эфир 22.10.2016
Выпуск 11. Кастинг в шести городах. Часть вторая. Эфир 23.10.2016
Выпуск 12. Отбор в 24. Часть первая. Эфир 29.10.2016
Выпуск 13. Отбор в 24. Часть вторая. Эфир 30.10.2016
Выпуск 14. Отбор в 20. Часть первая. Эфир 05.11.2016
Выпуск 15. Отбор в 20. Часть вторая. Эфир 06.11.2016
Выпуск 16. Выступление 20 лучших танцовщиков. Эфир 12.11.2016
Выпуск 17. Выступление 20 лучших танцовщиков. Эфир 19.11.2016
Выпуск 18. Выступление 16 лучших танцовщиков. Эфир 26.11.2016
Выпуск 19. Выступление 14 лучших танцовщиков. Эфир 03.12.2016
Выпуск 20. Выступление 10 лучших танцовщиков. Эфир 10.12.2016
Выпуск 21. Выступление 8 лучших танцовщиков. Эфир 17.12.2016
Выпуск 22. Гала-концерт. Объявление победителя. Эфир 24.12.2016

MediaInfo

Общее
Уникальный идентификатор : 175610422065554002748704260010553243113 (0x841D56484520B000B5941CD735F9F5E9)
Полное имя : I:\Local Disk\Танцы. 3 Сезон. 720p\Tantcy.Sezon.3.Vipusk.01.(20.08.2016).WEB-DLRip.720p.mkv
Формат : Matroska
Версия формата : Version 4 / Version 2
Размер файла : 2,48 Гбайт
Продолжительность : 1 ч. 33 м.
Общий поток : 3786 Кбит/сек
Дата кодирования : UTC 2016-09-25 15:24:31
Программа кодирования : mkvmerge v9.4.2 ('So High') 64bit
Библиотека кодирования : libebml v1.3.4 + libmatroska v1.4.5
Видео
Идентификатор : 1
Формат : AVC
Формат/Информация : Advanced Video Codec
Профиль формата : High@L3.1
Параметр CABAC формата : Да
Параметр ReFrames формата : 1 кадр
Параметр GOP формата : M=1, N=12
Идентификатор кодека : V_MPEG4/ISO/AVC
Продолжительность : 1 ч. 33 м.
Битрейт : 3591 Кбит/сек
Ширина : 1280 пикселей
Высота : 720 пикселей
Соотношение сторон : 16:9
Режим частоты кадров : Постоянный
Частота кадров : 25,000 кадров/сек
Стандарт вещания : Component
Цветовое пространство : YUV
Субдискретизация насыщенности : 4:2:0
Битовая глубина : 8 бит
Тип развёртки : Прогрессивная
Бит/(Пиксели*Кадры) : 0.156
Размер потока : 2,36 Гбайт (95%)
Default : Да
Forced : Нет
Цветовой диапазон : Limited
Аудио
Идентификатор : 2
Формат : AC-3
Формат/Информация : Audio Coding 3
Расширение режима : CM (complete main)
Параметр Endianness формата : Big
Идентификатор кодека : A_AC3
Продолжительность : 1 ч. 33 м.
Вид битрейта : Постоянный
Битрейт : 192 Кбит/сек
Каналы : 2 канала
Расположение каналов : Front: L R
Частота : 44,1 КГц
Частота кадров : 28,711 кадров/сек (1536 spf)
Битовая глубина : 16 бит
Метод сжатия : С потерями
Размер потока : 129 Мбайт (5%)
Default : Да
Forced : Да
Общее
Уникальный идентификатор : 183405622580265877395092189920231513418 (0x89FAA357387DBB8BB16C32B031B15D4A)
Полное имя : I:\Local Disk\Танцы. 3 Сезон. 720p\Tantcy.Sezon.3.Vipusk.02.(27.08.2016).WEB-DLRip.720p.mkv
Формат : Matroska
Версия формата : Version 4 / Version 2
Размер файла : 2,43 Гбайт
Продолжительность : 1 ч. 32 м.
Общий поток : 3785 Кбит/сек
Название фильма : by ExKinoRay
Дата кодирования : UTC 2016-09-25 15:28:57
Программа кодирования : mkvmerge v9.4.2 ('So High') 64bit
Библиотека кодирования : libebml v1.3.4 + libmatroska v1.4.5
Видео
Идентификатор : 1
Формат : AVC
Формат/Информация : Advanced Video Codec
Профиль формата : High@L3.1
Параметр CABAC формата : Да
Параметр ReFrames формата : 1 кадр
Параметр GOP формата : M=1, N=12
Идентификатор кодека : V_MPEG4/ISO/AVC
Продолжительность : 1 ч. 32 м.
Битрейт : 3591 Кбит/сек
Ширина : 1280 пикселей
Высота : 720 пикселей
Соотношение сторон : 16:9
Режим частоты кадров : Постоянный
Частота кадров : 25,000 кадров/сек
Стандарт вещания : Component
Цветовое пространство : YUV
Субдискретизация насыщенности : 4:2:0
Битовая глубина : 8 бит
Тип развёртки : Прогрессивная
Бит/(Пиксели*Кадры) : 0.156
Размер потока : 2,31 Гбайт (95%)
Заголовок : by ExKinoRay
Default : Да
Forced : Нет
Цветовой диапазон : Limited
Аудио
Идентификатор : 2
Формат : AC-3
Формат/Информация : Audio Coding 3
Расширение режима : CM (complete main)
Параметр Endianness формата : Big
Идентификатор кодека : A_AC3
Продолжительность : 1 ч. 32 м.
Вид битрейта : Постоянный
Битрейт : 192 Кбит/сек
Каналы : 2 канала
Расположение каналов : Front: L R
Частота : 48,0 КГц
Частота кадров : 31,250 кадров/сек (1536 spf)
Битовая глубина : 16 бит
Метод сжатия : С потерями
Размер потока : 126 Мбайт (5%)
Default : Да
Forced : Нет
Общее
Уникальный идентификатор : 199271575514954469734882765098593905515 (0x95EA4F3720F2F312976AF6C86FA56B6B)
Полное имя : I:\Local Disk\Танцы. 3 Сезон. 720p\Tantcy.Sezon.3.Vipusk.03.(03.09.2016).WEB-DLRip.720p.mkv
Формат : Matroska
Версия формата : Version 4 / Version 2
Размер файла : 2,56 Гбайт
Продолжительность : 1 ч. 36 м.
Общий поток : 3787 Кбит/сек
Дата кодирования : UTC 2016-09-25 15:33:02
Программа кодирования : mkvmerge v9.4.2 ('So High') 64bit
Библиотека кодирования : libebml v1.3.4 + libmatroska v1.4.5
Видео
Идентификатор : 1
Формат : AVC
Формат/Информация : Advanced Video Codec
Профиль формата : High@L3.1
Параметр CABAC формата : Да
Параметр ReFrames формата : 1 кадр
Параметр GOP формата : M=1, N=12
Идентификатор кодека : V_MPEG4/ISO/AVC
Продолжительность : 1 ч. 36 м.
Битрейт : 3593 Кбит/сек
Ширина : 1280 пикселей
Высота : 720 пикселей
Соотношение сторон : 16:9
Режим частоты кадров : Постоянный
Частота кадров : 25,000 кадров/сек
Стандарт вещания : Component
Цветовое пространство : YUV
Субдискретизация насыщенности : 4:2:0
Битовая глубина : 8 бит
Тип развёртки : Прогрессивная
Бит/(Пиксели*Кадры) : 0.156
Размер потока : 2,43 Гбайт (95%)
Default : Да
Forced : Нет
Цветовой диапазон : Limited
Аудио
Идентификатор : 2
Формат : AC-3
Формат/Информация : Audio Coding 3
Расширение режима : CM (complete main)
Параметр Endianness формата : Big
Идентификатор кодека : A_AC3
Продолжительность : 1 ч. 36 м.
Вид битрейта : Постоянный
Битрейт : 192 Кбит/сек
Каналы : 2 канала
Расположение каналов : Front: L R
Частота : 48,0 КГц
Частота кадров : 31,250 кадров/сек (1536 spf)
Битовая глубина : 16 бит
Метод сжатия : С потерями
Размер потока : 133 Мбайт (5%)
Язык : Russian
Default : Да
Forced : Нет
Общее
Уникальный идентификатор : 246593403259764724278068839090423451912 (0xB9842975128BF4BF8B1901931271D108)
Полное имя : I:\Local Disk\Танцы. 3 Сезон. 720p\Tantcy.Sezon.3.Vipusk.04.(10.09.2016).WEB-DLRip.720p.mkv
Формат : Matroska
Версия формата : Version 4 / Version 2
Размер файла : 2,50 Гбайт
Продолжительность : 1 ч. 34 м.
Общий поток : 3778 Кбит/сек
Дата кодирования : UTC 2016-09-25 15:41:17
Программа кодирования : mkvmerge v9.4.2 ('So High') 64bit
Библиотека кодирования : libebml v1.3.4 + libmatroska v1.4.5
Видео
Идентификатор : 1
Формат : AVC
Формат/Информация : Advanced Video Codec
Профиль формата : High@L3.1
Параметр CABAC формата : Да
Параметр ReFrames формата : 1 кадр
Параметр GOP формата : M=1, N=12
Идентификатор кодека : V_MPEG4/ISO/AVC
Продолжительность : 1 ч. 34 м.
Битрейт : 3583 Кбит/сек
Ширина : 1280 пикселей
Высота : 720 пикселей
Соотношение сторон : 16:9
Режим частоты кадров : Постоянный
Частота кадров : 25,000 кадров/сек
Стандарт вещания : Component
Цветовое пространство : YUV
Субдискретизация насыщенности : 4:2:0
Битовая глубина : 8 бит
Тип развёртки : Прогрессивная
Бит/(Пиксели*Кадры) : 0.156
Размер потока : 2,37 Гбайт (95%)
Default : Да
Forced : Нет
Цветовой диапазон : Limited
Аудио
Идентификатор : 2
Формат : AC-3
Формат/Информация : Audio Coding 3
Расширение режима : CM (complete main)
Параметр Endianness формата : Big
Идентификатор кодека : A_AC3
Продолжительность : 1 ч. 34 м.
Вид битрейта : Постоянный
Битрейт : 192 Кбит/сек
Каналы : 2 канала
Расположение каналов : Front: L R
Частота : 44,1 КГц
Частота кадров : 28,711 кадров/сек (1536 spf)
Битовая глубина : 16 бит
Метод сжатия : С потерями
Размер потока : 130 Мбайт (5%)
Язык : Russian
Default : Да
Forced : Да
Общее
Уникальный идентификатор : 246643858114614459206980740457432426431 (0xB98DE112DF38D579821A643EC77527BF)
Полное имя : I:\Local Disk\Танцы. 3 Сезон. 720p\Tantcy.Sezon.3.Vipusk.05.(17.09.2016).WEB-DLRip.720p.mkv
Формат : Matroska
Версия формата : Version 4 / Version 2
Размер файла : 2,55 Гбайт
Продолжительность : 1 ч. 36 м.
Общий поток : 3786 Кбит/сек
Дата кодирования : UTC 2016-09-25 15:45:47
Программа кодирования : mkvmerge v9.4.2 ('So High') 64bit
Библиотека кодирования : libebml v1.3.4 + libmatroska v1.4.5
Видео
Идентификатор : 1
Формат : AVC
Формат/Информация : Advanced Video Codec
Профиль формата : High@L3.1
Параметр CABAC формата : Да
Параметр ReFrames формата : 1 кадр
Параметр GOP формата : M=1, N=12
Идентификатор кодека : V_MPEG4/ISO/AVC
Продолжительность : 1 ч. 36 м.
Битрейт : 3592 Кбит/сек
Ширина : 1280 пикселей
Высота : 720 пикселей
Соотношение сторон : 16:9
Режим частоты кадров : Постоянный
Частота кадров : 25,000 кадров/сек
Стандарт вещания : Component
Цветовое пространство : YUV
Субдискретизация насыщенности : 4:2:0
Битовая глубина : 8 бит
Тип развёртки : Прогрессивная
Бит/(Пиксели*Кадры) : 0.156
Размер потока : 2,42 Гбайт (95%)
Default : Да
Forced : Нет
Цветовой диапазон : Limited
Аудио
Идентификатор : 2
Формат : AC-3
Формат/Информация : Audio Coding 3
Расширение режима : CM (complete main)
Параметр Endianness формата : Big
Идентификатор кодека : A_AC3
Продолжительность : 1 ч. 36 м.
Вид битрейта : Постоянный
Битрейт : 192 Кбит/сек
Каналы : 2 канала
Расположение каналов : Front: L R
Частота : 44,1 КГц
Частота кадров : 28,711 кадров/сек (1536 spf)
Битовая глубина : 16 бит
Метод сжатия : С потерями
Размер потока : 132 Мбайт (5%)
Default : Да
Forced : Да
Общее
Уникальный идентификатор : 227422710041603187318950989333578574678 (0xAB18054E946AEC28A03EAD4B153AEB56)
Полное имя : I:\Local Disk\Танцы. 3 Сезон. 720p\Tantcy.Sezon.3.Vipusk.06.(24.09.2016).WEB-DLRip.720p.mkv
Формат : Matroska
Версия формата : Version 4 / Version 2
Размер файла : 2,56 Гбайт
Продолжительность : 1 ч. 36 м.
Общий поток : 3786 Кбит/сек
Дата кодирования : UTC 2016-09-25 13:15:19
Программа кодирования : mkvmerge v9.4.2 ('So High') 64bit
Библиотека кодирования : libebml v1.3.4 + libmatroska v1.4.5
Видео
Идентификатор : 1
Формат : AVC
Формат/Информация : Advanced Video Codec
Профиль формата : High@L3.1
Параметр CABAC формата : Да
Параметр ReFrames формата : 1 кадр
Параметр GOP формата : M=1, N=12
Идентификатор кодека : V_MPEG4/ISO/AVC
Продолжительность : 1 ч. 36 м.
Битрейт : 3592 Кбит/сек
Ширина : 1280 пикселей
Высота : 720 пикселей
Соотношение сторон : 16:9
Режим частоты кадров : Постоянный
Частота кадров : 25,000 кадров/сек
Стандарт вещания : Component
Цветовое пространство : YUV
Субдискретизация насыщенности : 4:2:0
Битовая глубина : 8 бит
Тип развёртки : Прогрессивная
Бит/(Пиксели*Кадры) : 0.156
Размер потока : 2,43 Гбайт (95%)
Default : Да
Forced : Нет
Цветовой диапазон : Limited
Аудио
Идентификатор : 2
Формат : AC-3
Формат/Информация : Audio Coding 3
Расширение режима : CM (complete main)
Параметр Endianness формата : Big
Идентификатор кодека : A_AC3
Продолжительность : 1 ч. 36 м.
Вид битрейта : Постоянный
Битрейт : 192 Кбит/сек
Каналы : 2 канала
Расположение каналов : Front: L R
Частота : 48,0 КГц
Частота кадров : 31,250 кадров/сек (1536 spf)
Битовая глубина : 16 бит
Метод сжатия : С потерями
Размер потока : 133 Мбайт (5%)
Default : Да
Forced : Нет
Общее
Уникальный идентификатор : 212424349911160887822333285993938726561 (0x9FCF710F63F4C0CD927316B5CCCCAEA1)
Полное имя : I:\Local Disk\Танцы. 3 Сезон. 720p\Tantcy.Sezon.3.Vipusk.07.(01.10.2016).WEB-DLRip.720p.mkv
Формат : Matroska
Версия формата : Version 4 / Version 2
Размер файла : 2,54 Гбайт
Продолжительность : 1 ч. 36 м.
Общий поток : 3786 Кбит/сек
Дата кодирования : UTC 2016-10-02 02:36:43
Программа кодирования : mkvmerge v9.4.2 ('So High') 64bit
Библиотека кодирования : libebml v1.3.4 + libmatroska v1.4.5
Видео
Идентификатор : 1
Формат : AVC
Формат/Информация : Advanced Video Codec
Профиль формата : High@L3.1
Параметр CABAC формата : Да
Параметр ReFrames формата : 1 кадр
Параметр GOP формата : M=1, N=12
Идентификатор кодека : V_MPEG4/ISO/AVC
Продолжительность : 1 ч. 36 м.
Битрейт : 3592 Кбит/сек
Ширина : 1280 пикселей
Высота : 720 пикселей
Соотношение сторон : 16:9
Режим частоты кадров : Постоянный
Частота кадров : 25,000 кадров/сек
Стандарт вещания : Component
Цветовое пространство : YUV
Субдискретизация насыщенности : 4:2:0
Битовая глубина : 8 бит
Тип развёртки : Прогрессивная
Бит/(Пиксели*Кадры) : 0.156
Размер потока : 2,41 Гбайт (95%)
Default : Да
Forced : Нет
Цветовой диапазон : Limited
Аудио
Идентификатор : 2
Формат : AC-3
Формат/Информация : Audio Coding 3
Расширение режима : CM (complete main)
Параметр Endianness формата : Big
Идентификатор кодека : A_AC3
Продолжительность : 1 ч. 36 м.
Вид битрейта : Постоянный
Битрейт : 192 Кбит/сек
Каналы : 2 канала
Расположение каналов : Front: L R
Частота : 44,1 КГц
Частота кадров : 28,711 кадров/сек (1536 spf)
Битовая глубина : 16 бит
Метод сжатия : С потерями
Размер потока : 132 Мбайт (5%)
Язык : Russian
Default : Да
Forced : Нет
Общее
Уникальный идентификатор : 174533442230493906025980517227151206428 (0x834DEB13AB286B0194BDA0865483A81C)
Полное имя : I:\Local Disk\Танцы. 3 Сезон. 720p\Tantcy.Sezon.3.Vipusk.08.(08.10.2016).WEB-DLRip.720p.mkv
Формат : Matroska
Версия формата : Version 4 / Version 2
Размер файла : 2,60 Гбайт
Продолжительность : 1 ч. 38 м.
Общий поток : 3787 Кбит/сек
Название фильма : WEB-DLRip (720р) by ExKinoRay
Дата кодирования : UTC 2016-10-09 02:09:31
Программа кодирования : mkvmerge v9.4.2 ('So High') 64bit
Библиотека кодирования : libebml v1.3.4 + libmatroska v1.4.5
Видео
Идентификатор : 1
Формат : AVC
Формат/Информация : Advanced Video Codec
Профиль формата : High@L3.1
Параметр CABAC формата : Да
Параметр ReFrames формата : 1 кадр
Параметр GOP формата : M=1, N=12
Идентификатор кодека : V_MPEG4/ISO/AVC
Продолжительность : 1 ч. 38 м.
Битрейт : 3593 Кбит/сек
Ширина : 1280 пикселей
Высота : 720 пикселей
Соотношение сторон : 16:9
Режим частоты кадров : Постоянный
Частота кадров : 25,000 кадров/сек
Стандарт вещания : Component
Цветовое пространство : YUV
Субдискретизация насыщенности : 4:2:0
Битовая глубина : 8 бит
Тип развёртки : Прогрессивная
Бит/(Пиксели*Кадры) : 0.156
Размер потока : 2,46 Гбайт (95%)
Заголовок : WEB-DLRip (720р) by ExKinoRay
Default : Да
Forced : Нет
Цветовой диапазон : Limited
Аудио
Идентификатор : 2
Формат : AC-3
Формат/Информация : Audio Coding 3
Расширение режима : CM (complete main)
Параметр Endianness формата : Big
Идентификатор кодека : A_AC3
Продолжительность : 1 ч. 38 м.
Вид битрейта : Постоянный
Битрейт : 192 Кбит/сек
Каналы : 2 канала
Расположение каналов : Front: L R
Частота : 44,1 КГц
Частота кадров : 28,711 кадров/сек (1536 spf)
Битовая глубина : 16 бит
Метод сжатия : С потерями
Размер потока : 135 Мбайт (5%)
Язык : Russian
Default : Да
Forced : Нет
Общее
Уникальный идентификатор : 235380129655796998670056726746875721935 (0xB11490626BC53C8CB6FA7C876C4278CF)
Полное имя : I:\Local Disk\Танцы. 3 Сезон. 720p\Tantcy.Sezon.3.Vipusk.09.(15.10.2016).WEB-DLRip.720p.mkv
Формат : Matroska
Версия формата : Version 4 / Version 2
Размер файла : 2,53 Гбайт
Продолжительность : 1 ч. 35 м.
Общий поток : 3787 Кбит/сек
Дата кодирования : UTC 2016-10-15 21:53:17
Программа кодирования : mkvmerge v9.4.2 ('So High') 64bit
Библиотека кодирования : libebml v1.3.4 + libmatroska v1.4.5
Видео
Идентификатор : 1
Формат : AVC
Формат/Информация : Advanced Video Codec
Профиль формата : High@L3.1
Параметр CABAC формата : Да
Параметр ReFrames формата : 1 кадр
Параметр GOP формата : M=1, N=12
Идентификатор кодека : V_MPEG4/ISO/AVC
Продолжительность : 1 ч. 35 м.
Битрейт : 3592 Кбит/сек
Ширина : 1280 пикселей
Высота : 720 пикселей
Соотношение сторон : 16:9
Режим частоты кадров : Постоянный
Частота кадров : 25,000 кадров/сек
Стандарт вещания : Component
Цветовое пространство : YUV
Субдискретизация насыщенности : 4:2:0
Битовая глубина : 8 бит
Тип развёртки : Прогрессивная
Бит/(Пиксели*Кадры) : 0.156
Размер потока : 2,40 Гбайт (95%)
Default : Да
Forced : Нет
Цветовой диапазон : Limited
Аудио
Идентификатор : 2
Формат : AC-3
Формат/Информация : Audio Coding 3
Расширение режима : CM (complete main)
Параметр Endianness формата : Big
Идентификатор кодека : A_AC3
Продолжительность : 1 ч. 35 м.
Вид битрейта : Постоянный
Битрейт : 192 Кбит/сек
Каналы : 2 канала
Расположение каналов : Front: L R
Частота : 44,1 КГц
Частота кадров : 28,711 кадров/сек (1536 spf)
Битовая глубина : 16 бит
Метод сжатия : С потерями
Размер потока : 132 Мбайт (5%)
Default : Да
Forced : Нет
Общее
Уникальный идентификатор : 185164888862138705423119277840218949568 (0x8B4D75DD7CA92F9981050207F6AF87C0)
Полное имя : I:\Local Disk\Танцы. 3 Сезон. 720p\Tantcy.Sezon.3.Vipusk.10.(22.10.2016).WEB-DLRip.720p.mkv
Формат : Matroska
Версия формата : Version 4 / Version 2
Размер файла : 2,51 Гбайт
Продолжительность : 1 ч. 34 м.
Общий поток : 3785 Кбит/сек
Дата кодирования : UTC 2016-10-23 04:46:29
Программа кодирования : mkvmerge v9.5.0 ('Quiet Fire') 64bit
Библиотека кодирования : libebml v1.3.4 + libmatroska v1.4.5
Видео
Идентификатор : 1
Формат : AVC
Формат/Информация : Advanced Video Codec
Профиль формата : High@L3.1
Параметр CABAC формата : Да
Параметр ReFrames формата : 1 кадр
Параметр GOP формата : M=1, N=12
Идентификатор кодека : V_MPEG4/ISO/AVC
Продолжительность : 1 ч. 34 м.
Битрейт : 3590 Кбит/сек
Ширина : 1280 пикселей
Высота : 720 пикселей
Соотношение сторон : 16:9
Режим частоты кадров : Постоянный
Частота кадров : 25,000 кадров/сек
Стандарт вещания : Component
Цветовое пространство : YUV
Субдискретизация насыщенности : 4:2:0
Битовая глубина : 8 бит
Тип развёртки : Прогрессивная
Бит/(Пиксели*Кадры) : 0.156
Размер потока : 2,38 Гбайт (95%)
Default : Да
Forced : Нет
Цветовой диапазон : Limited
Аудио
Идентификатор : 2
Формат : AC-3
Формат/Информация : Audio Coding 3
Расширение режима : CM (complete main)
Параметр Endianness формата : Big
Идентификатор кодека : A_AC3
Продолжительность : 1 ч. 34 м.
Вид битрейта : Постоянный
Битрейт : 192 Кбит/сек
Каналы : 2 канала
Расположение каналов : Front: L R
Частота : 44,1 КГц
Частота кадров : 28,711 кадров/сек (1536 spf)
Битовая глубина : 16 бит
Метод сжатия : С потерями
Размер потока : 130 Мбайт (5%)
Default : Да
Forced : Нет
Общее
Уникальный идентификатор : 215659390033936588717116240278058340258 (0xA23E7CDA43EBFAB0B598004BFCD68FA2)
Полное имя : I:\Local Disk\Танцы. 3 Сезон. 720p\Tantcy.Sezon.3.Vipusk.11.(23.10.2016).WEB-DLRip.720p.mkv
Формат : Matroska
Версия формата : Version 4 / Version 2
Размер файла : 2,53 Гбайт
Продолжительность : 1 ч. 35 м.
Общий поток : 3787 Кбит/сек
Дата кодирования : UTC 2016-10-24 03:08:23
Программа кодирования : mkvmerge v9.5.0 ('Quiet Fire') 64bit
Библиотека кодирования : libebml v1.3.4 + libmatroska v1.4.5
Видео
Идентификатор : 1
Формат : AVC
Формат/Информация : Advanced Video Codec
Профиль формата : High@L3.1
Параметр CABAC формата : Да
Параметр ReFrames формата : 1 кадр
Параметр GOP формата : M=1, N=12
Идентификатор кодека : V_MPEG4/ISO/AVC
Продолжительность : 1 ч. 35 м.
Битрейт : 3593 Кбит/сек
Ширина : 1280 пикселей
Высота : 720 пикселей
Соотношение сторон : 16:9
Режим частоты кадров : Постоянный
Частота кадров : 25,000 кадров/сек
Стандарт вещания : Component
Цветовое пространство : YUV
Субдискретизация насыщенности : 4:2:0
Битовая глубина : 8 бит
Тип развёртки : Прогрессивная
Бит/(Пиксели*Кадры) : 0.156
Размер потока : 2,40 Гбайт (95%)
Default : Да
Forced : Нет
Цветовой диапазон : Limited
Аудио
Идентификатор : 2
Формат : AC-3
Формат/Информация : Audio Coding 3
Расширение режима : CM (complete main)
Параметр Endianness формата : Big
Идентификатор кодека : A_AC3
Продолжительность : 1 ч. 35 м.
Вид битрейта : Постоянный
Битрейт : 192 Кбит/сек
Каналы : 2 канала
Расположение каналов : Front: L R
Частота : 48,0 КГц
Частота кадров : 31,250 кадров/сек (1536 spf)
Битовая глубина : 16 бит
Метод сжатия : С потерями
Размер потока : 131 Мбайт (5%)
Default : Да
Forced : Нет
Общее
Уникальный идентификатор : 194953300051641737934635085106540170908 (0x92AAA3CC12AF36F1B3C20CA41BEFCE9C)
Полное имя : I:\Local Disk\Танцы. 3 Сезон. 720p\Tantcy.Sezon.3.Vipusk.12.(29.10.2016).WEB-DLRip.720p.mkv
Формат : Matroska
Версия формата : Version 4 / Version 2
Размер файла : 2,59 Гбайт
Продолжительность : 1 ч. 38 м.
Общий поток : 3787 Кбит/сек
Дата кодирования : UTC 2016-10-30 02:44:45
Программа кодирования : mkvmerge v9.5.0 ('Quiet Fire') 64bit
Библиотека кодирования : libebml v1.3.4 + libmatroska v1.4.5
Видео
Идентификатор : 1
Формат : AVC
Формат/Информация : Advanced Video Codec
Профиль формата : High@L3.1
Параметр CABAC формата : Да
Параметр ReFrames формата : 1 кадр
Параметр GOP формата : M=1, N=12
Идентификатор кодека : V_MPEG4/ISO/AVC
Продолжительность : 1 ч. 38 м.
Битрейт : 3592 Кбит/сек
Ширина : 1280 пикселей
Высота : 720 пикселей
Соотношение сторон : 16:9
Режим частоты кадров : Постоянный
Частота кадров : 25,000 кадров/сек
Стандарт вещания : Component
Цветовое пространство : YUV
Субдискретизация насыщенности : 4:2:0
Битовая глубина : 8 бит
Тип развёртки : Прогрессивная
Бит/(Пиксели*Кадры) : 0.156
Размер потока : 2,46 Гбайт (95%)
Default : Да
Forced : Нет
Цветовой диапазон : Limited
Аудио
Идентификатор : 2
Формат : AC-3
Формат/Информация : Audio Coding 3
Расширение режима : CM (complete main)
Параметр Endianness формата : Big
Идентификатор кодека : A_AC3
Продолжительность : 1 ч. 38 м.
Вид битрейта : Постоянный
Битрейт : 192 Кбит/сек
Каналы : 2 канала
Расположение каналов : Front: L R
Частота : 44,1 КГц
Частота кадров : 28,711 кадров/сек (1536 spf)
Битовая глубина : 16 бит
Метод сжатия : С потерями
Размер потока : 135 Мбайт (5%)
Default : Да
Forced : Нет
Общее
Уникальный идентификатор : 253049699781040577294599116842348395285 (0xBE5F9973C348E5D78B5E782CBA993B15)
Полное имя : I:\Local Disk\Танцы. 3 Сезон. 720p\Tantcy.Sezon.3.Vipusk.13.(30.10.2016).WEB-DLRip.720p.mkv
Формат : Matroska
Версия формата : Version 4 / Version 2
Размер файла : 2,60 Гбайт
Продолжительность : 1 ч. 38 м.
Общий поток : 3787 Кбит/сек
Дата кодирования : UTC 2016-10-31 03:43:12
Программа кодирования : mkvmerge v9.5.0 ('Quiet Fire') 64bit
Библиотека кодирования : libebml v1.3.4 + libmatroska v1.4.5
Видео
Идентификатор : 1
Формат : AVC
Формат/Информация : Advanced Video Codec
Профиль формата : High@L3.1
Параметр CABAC формата : Да
Параметр ReFrames формата : 1 кадр
Параметр GOP формата : M=1, N=12
Идентификатор кодека : V_MPEG4/ISO/AVC
Продолжительность : 1 ч. 38 м.
Битрейт : 3592 Кбит/сек
Ширина : 1280 пикселей
Высота : 720 пикселей
Соотношение сторон : 16:9
Режим частоты кадров : Постоянный
Частота кадров : 25,000 кадров/сек
Стандарт вещания : Component
Цветовое пространство : YUV
Субдискретизация насыщенности : 4:2:0
Битовая глубина : 8 бит
Тип развёртки : Прогрессивная
Бит/(Пиксели*Кадры) : 0.156
Размер потока : 2,46 Гбайт (95%)
Default : Да
Forced : Нет
Цветовой диапазон : Limited
Аудио
Идентификатор : 2
Формат : AC-3
Формат/Информация : Audio Coding 3
Расширение режима : CM (complete main)
Параметр Endianness формата : Big
Идентификатор кодека : A_AC3
Продолжительность : 1 ч. 38 м.
Вид битрейта : Постоянный
Битрейт : 192 Кбит/сек
Каналы : 2 канала
Расположение каналов : Front: L R
Частота : 44,1 КГц
Частота кадров : 28,711 кадров/сек (1536 spf)
Битовая глубина : 16 бит
Метод сжатия : С потерями
Размер потока : 135 Мбайт (5%)
Default : Да
Forced : Нет
Общее
Уникальный идентификатор : 245718672605214102619451439391702411721 (0xB8DBB1E80451DCAAAA344CD1749669C9)
Полное имя : I:\Local Disk\Танцы. 3 Сезон. 720p\Tantcy.Sezon.3.Vipusk.14.(05.11.2016).WEB-DLRip.720p.mkv
Формат : Matroska
Версия формата : Version 4 / Version 2
Размер файла : 2,54 Гбайт
Продолжительность : 1 ч. 35 м.
Общий поток : 3786 Кбит/сек
Дата кодирования : UTC 2016-11-05 22:42:56
Программа кодирования : mkvmerge v9.5.0 ('Quiet Fire') 64bit
Библиотека кодирования : libebml v1.3.4 + libmatroska v1.4.5
Видео
Идентификатор : 1
Формат : AVC
Формат/Информация : Advanced Video Codec
Профиль формата : High@L3.1
Параметр CABAC формата : Да
Параметр ReFrames формата : 1 кадр
Параметр GOP формата : M=1, N=12
Идентификатор кодека : V_MPEG4/ISO/AVC
Продолжительность : 1 ч. 35 м.
Битрейт : 3592 Кбит/сек
Ширина : 1280 пикселей
Высота : 720 пикселей
Соотношение сторон : 16:9
Режим частоты кадров : Постоянный
Частота кадров : 25,000 кадров/сек
Стандарт вещания : Component
Цветовое пространство : YUV
Субдискретизация насыщенности : 4:2:0
Битовая глубина : 8 бит
Тип развёртки : Прогрессивная
Бит/(Пиксели*Кадры) : 0.156
Размер потока : 2,41 Гбайт (95%)
Default : Да
Forced : Нет
Цветовой диапазон : Limited
Аудио
Идентификатор : 2
Формат : AC-3
Формат/Информация : Audio Coding 3
Расширение режима : CM (complete main)
Параметр Endianness формата : Big
Идентификатор кодека : A_AC3
Продолжительность : 1 ч. 35 м.
Вид битрейта : Постоянный
Битрейт : 192 Кбит/сек
Каналы : 2 канала
Расположение каналов : Front: L R
Частота : 44,1 КГц
Частота кадров : 28,711 кадров/сек (1536 spf)
Битовая глубина : 16 бит
Метод сжатия : С потерями
Размер потока : 132 Мбайт (5%)
Default : Да
Forced : Нет
Общее
Уникальный идентификатор : 238969738612175581843946779629117169126 (0xB3C7E5C527084EAE84EAA5CB1886DDE6)
Полное имя : I:\Local Disk\Танцы. 3 Сезон. 720p\Tantcy.Sezon.3.Vipusk.15.(06.11.2016).WEB-DLRip.720p.mkv
Формат : Matroska
Версия формата : Version 2
Размер файла : 2,60 Гбайт
Продолжительность : 1 ч. 38 м.
Общий поток : 3789 Кбит/сек
Дата кодирования : UTC 2016-11-07 01:05:43
Программа кодирования : mkvmerge v7.8.0 ('River Man') 32bit built on Apr 3 2015 12:11:22
Библиотека кодирования : libebml v1.3.1 + libmatroska v1.4.2
Видео
Идентификатор : 1
Формат : AVC
Формат/Информация : Advanced Video Codec
Профиль формата : High@L3.1
Параметр CABAC формата : Да
Параметр ReFrames формата : 1 кадр
Параметр GOP формата : M=1, N=12
Идентификатор кодека : V_MPEG4/ISO/AVC
Продолжительность : 1 ч. 38 м.
Битрейт : 3522 Кбит/сек
Ширина : 1280 пикселей
Высота : 720 пикселей
Соотношение сторон : 16:9
Режим частоты кадров : Постоянный
Частота кадров : 25,000 кадров/сек
Стандарт вещания : Component
Цветовое пространство : YUV
Субдискретизация насыщенности : 4:2:0
Битовая глубина : 8 бит
Тип развёртки : Прогрессивная
Бит/(Пиксели*Кадры) : 0.153
Размер потока : 2,42 Гбайт (93%)
Default : Да
Forced : Нет
Цветовой диапазон : Limited
Аудио
Идентификатор : 2
Формат : AC-3
Формат/Информация
[www.cybertorrent.ru].t2787.torrent 
Торрент: Зарегистрирован [ 2018-02-16 14:35 ] · 7B3A3DA3CF8C5AAF3B7509B1781A1E6FCC4BC77C

Скачать .torrent

Скачать

145 KB

Статус: проверено
Скачан: 0 раз
Размер: 56,78 GB
Профиль [ЛС]
Показать сообщения:    

Текущее время: 21-Июн 04:17

Часовой пояс: UTC ± 0



Вы не можете начинать темы
Вы не можете отвечать на сообщения
Вы не можете редактировать свои сообщения
Вы не можете удалять свои сообщения
Вы не можете голосовать в опросах
Вы не можете прикреплять файлы к сообщениям
Вы можете скачивать файлы