Статистика раздачи
Размер:  3,8 GB   |    Зарегистрирован:  4 месяца 7 дней   |    Скачан:  0 раз

Полного источника не было: Никогда

 
   
 
 

firebird ®

Пол:
Не указан
Стаж:
4 месяца 8 дней
Сообщений:
37

-Покемон Навсегда (фильм 4) - Селеби: Голос Леса
Pokemon 4ever - Celebi: Voice of the Forest
[FHD 1080p][HD 720p] [SD 396p]-Pokemon the Movie [FHD 1080p]:|1| |2| |3| |4| |5| |6| |7| |8| |9| |10| |11| |12| |13| |14b и 14w| |15| |16| |17| |18| |19| |20|- Страна: Япония / США
Год выпуска: 7 июля 2001 г.
Жанр: детский, комедия, приключения, фэнтези.
Тип: Movie
Продолжительность: 78 мин
Режиссер: Кунихико Юяма
Студия: OLM
-Описание: Мальчик Сэм помогает хранителю леса - покемону Селеби спастись от человека, который охотится на покемонов. Благодаря способностям Селеби, им удается перенестись на 40 лет в будущее, в тот период, когда путешествовал Эш. Сэм объединяется силами вместе с Эшем и они отправляются помогать Селеби исцеляться.
Так начинались удивительные приключения Эша, Сэма, Селеби и Пикачу. Их возвращения в реальное время ждут враги. Мародер в железной маске из команды R хочет захватить Селеби. Он превращает его в черного покемона, забирает всю его силу и применяет её для того, чтобы стать обладателем всего мира.(с)multyasha-Информация о релизе:
WEBRip, сведение звука: LightEssence
Трехголосая озвучка и Русские субтитры:
West Video (Лицензионный диск: Mclovin345)-Качество: WEBRip | Тип релиза: Без хардсаба | Формат видео: MKV
Релиз/Автор рипа: LightEssence
Совместимость с бытовыми плеерами: Нет-Обновление от 12.10.2017
Видео: x264(8bit), 1920х1080, 6000 kbps, 23.976 fps(NTSC)
в составе контейнера:
Аудио 1: AC3, 448kbps, 48kHz, 6ch - Русский; Озвучка 1: [MVO] - Трехголосый, Закадровый [West Video]
Аудио 2: AC3, 448kbps, 48kHz, 6ch - Английский; Озвучка 2: [DUB] - Многоголосый, Дублированный [Оригинал]
Субтитры 1: SRT, Русский - West Video [SubRip by LightEssence]
Субтитры 2: SRT, Английский - Pokemon Company [SubRip by LightEssence]-

Скриншоты

Подробные тех. данные

Код:General
Unique ID : 172556067119378411364018951479778107595 (0x81D116F4F25CCABD9B322859FB3460CB)
Complete name : F:\Покемон\Pokemon the Movie [1080p]\04. Pokemon 4ever - Celebi - Voice of the Forest [WEBRip -1080p][LightEssence].mkv
Format : Matroska
Format version : Version 4 / Version 2
File size : 3.80 GiB
Duration : 1 h 18 min
Overall bit rate : 6 897 kb/s
Encoded date : UTC 2017-10-11 20:11:18
Writing application : mkvmerge v16.0.0 ('Protest') 64-bit
Writing library : libebml v1.3.5 + libmatroska v1.4.8
Video
ID : 1
Format : AVC
Format/Info : Advanced Video Codec
Format profile : High@L4.1
Format settings, CABAC : Yes
Format settings, RefFrames : 4 frames
Codec ID : V_MPEG4/ISO/AVC
Duration : 1 h 18 min
Bit rate : 6 000 kb/s
Width : 1 920 pixels
Height : 1 080 pixels
Display aspect ratio : 16:9
Frame rate mode : Constant
Frame rate : 23.976 (24000/1001) FPS
Color space : YUV
Chroma subsampling : 4:2:0
Bit depth : 8 bits
Scan type : Progressive
Bits/(Pixel*Frame) : 0.121
Stream size : 3.31 GiB (87%)
Title : Pokemon 4ever - Celebi: Voice of the Forest - 2001 WEBRip - [LightEssence] [1080p]
Writing library : x264 core 150 r2833M df79067
Encoding settings : cabac=1 / ref=4 / deblock=1:-3:-3 / analyse=0x3:0x113 / me=umh / subme=10 / psy=1 / psy_rd=1.05:0.10 / mixed_ref=1 / me_range=48 / chroma_me=1 / trellis=2 / 8x8dct=1 / cqm=0 / deadzone=21,11 / fast_pskip=0 / chroma_qp_offset=-3 / threads=9 / lookahead_threads=1 / sliced_threads=0 / nr=0 / decimate=1 / interlaced=0 / bluray_compat=0 / constrained_intra=0 / bframes=6 / b_pyramid=2 / b_adapt=2 / b_bias=0 / direct=3 / weightb=1 / open_gop=0 / weightp=2 / keyint=230 / keyint_min=23 / scenecut=40 / intra_refresh=0 / rc_lookahead=60 / rc=2pass / mbtree=0 / bitrate=6000 / ratetol=1.0 / qcomp=0.70 / qpmin=3 / qpmax=69 / qpstep=4 / cplxblur=20.0 / qblur=0.5 / vbv_maxrate=40000 / vbv_bufsize=30000 / nal_hrd=none / filler=0 / ip_ratio=1.40 / pb_ratio=1.30 / aq=2:1.00
Language : English
Default : Yes
Forced : No
Audio #1
ID : 2
Format : AC-3
Format/Info : Audio Coding 3
Format settings, Endianness : Big
Codec ID : A_AC3
Duration : 1 h 18 min
Bit rate mode : Constant
Bit rate : 448 kb/s
Channel(s) : 6 channels
Channel positions : Front: L C R, Side: L R, LFE
Sampling rate : 48.0 kHz
Frame rate : 31.250 FPS (1536 SPF)
Bit depth : 16 bits
Compression mode : Lossy
Stream size : 253 MiB (6%)
Title : RUS [MVO] - (трехголосый, закадровый)
Language : Russian
Service kind : Complete Main
Default : Yes
Forced : No
Audio #2
ID : 3
Format : AC-3
Format/Info : Audio Coding 3
Format settings, Endianness : Big
Codec ID : A_AC3
Duration : 1 h 18 min
Bit rate mode : Constant
Bit rate : 448 kb/s
Channel(s) : 6 channels
Channel positions : Front: L C R, Side: L R, LFE
Sampling rate : 48.0 kHz
Frame rate : 31.250 FPS (1536 SPF)
Bit depth : 16 bits
Compression mode : Lossy
Stream size : 253 MiB (6%)
Title : ENG [DUB]
Language : English
Service kind : Complete Main
Default : No
Forced : No
Text #1
ID : 4
Format : UTF-8
Codec ID : S_TEXT/UTF8
Codec ID/Info : UTF-8 Plain Text
Duration : 1 h 14 min
Bit rate : 55 b/s
Count of elements : 546
Stream size : 29.9 KiB (0%)
Title : RUS [SUB] - West Video [SubRip by LightEssence]
Language : Russian
Default : No
Forced : No
Text #2
ID : 5
Format : UTF-8
Codec ID : S_TEXT/UTF8
Codec ID/Info : UTF-8 Plain Text
Duration : 1 h 13 min
Bit rate : 49 b/s
Count of elements : 1292
Stream size : 26.9 KiB (0%)
Title : ENG [SUB] - Pokemon Company [SubRip by LightEssence]
Language : English
Default : No
Forced : No

Отличия

DVD [Mclovin345] - WEBRip, 1080p
DVDRip [cnauk] - WEBRip, 1080p
DVDRip [NIIBACO] - WEBRip, 1080p
DVDRip [Andron1818] - WEBRip, 1080p
WEBRip 720p [LightEssence] - 1080p
WEBRip SD [LightEssence] - 1080p

Постер в оригинальном размере

Скачать
-Внимание!!!
Если торрент не видит анонсеры рутрекера и не видит сидов (раздача выделена красным цветом в uTorrent) рекомендую воспользоваться этой или другими инструкциями по обходу блокировки
[www.cybertorrent.ru].t2774.torrent 
Торрент: Зарегистрирован [ 2018-02-16 14:35 ] · 78FEADB89A76610AB9B5B003234CBC9BCA59F227

Скачать .torrent

Скачать

20 KB

Статус: проверено
Скачан: 0 раз
Размер: 3,8 GB
Профиль [ЛС]
Показать сообщения:    

Текущее время: 23-Июн 18:04

Часовой пояс: UTC ± 0



Вы не можете начинать темы
Вы не можете отвечать на сообщения
Вы не можете редактировать свои сообщения
Вы не можете удалять свои сообщения
Вы не можете голосовать в опросах
Вы не можете прикреплять файлы к сообщениям
Вы можете скачивать файлы