Статистика раздачи
Размер:  21,15 GB   |    Зарегистрирован:  9 месяцев 24 дня   |    Скачан:  0 раз

Полного источника не было: Никогда

 
   
 
 

AleXa ®

Пол:
Не указан
Стаж:
9 месяцев 25 дней
Сообщений:
51

Футурама (том 2) / Futurama (volume 2) Страна: США
Жанр: Фантастика, комедия, драма
Продолжительность: 00:22:34 / серия
Год выпуска: 1999-2000
Перевод 1: Профессиональный (многоголосый закадровый) [Ren-TV]
Перевод 2: Одноголосый (закадровый) [Михаил Яроцкий (kyberpunk)] (серии 1-14)
Русские субтитры: есть (серии 01-13, 15-18)
Режиссёр: Мэтт Грейнинг / Matt Groening
Роли озвучивали: Билли Уэст, Кэти Сагал, Джон ДиМаджио, Тресс МакНилл, Морис ЛаМарш, Фил ЛаМарр, Лоурен Том, Дэвид Херман, Фрэнк Уэлкер, Бирн Оффатт, Кэт Сауси, Доун Льюис.
Описание: Сериал начинается с того, что разносчик пиццы из Нью-Йорка Филипп Дж. Фрай случайно (как это произошло на самом деле, раскроется в 10 эпизоде 4-го сезона «Загадка Фрая») был заморожен в криогенной камере ровно в 00 часов 00 минут 00 секунд 1 января 2000 года и разморожен 1000 лет (365242,5 суток) спустя — 31 декабря 2999 года. Фрай оказывается в далёком будущем в городе Новый Нью-Йорк.
В большинстве серий действие сериала происходит в Новом Нью-Йорке в XXXI веке. Использование будущего времени позволяло авторам шоу вносить в него идеи и события из популярной фантастики XX века.
Сериал показывает приключения Фрая, Лилы, робота Бендера и многих других персонажей, связанные как с полётами в космос, так и с личностями героев.

Список серий:

2ACV01 «I Second That Emotion» (Я повторяю эту эмоцию)
2ACV02 «Brannigan, Begin Again» (Бренниган, начни с начала)
2ACV03 «A Head in the Polls» (Голова на выборах)
2ACV04 «Xmas Story» (Рождественская история)
2ACV05 «Why Must I Be a Crustacean in Love?» (Зачем мне быть влюблённым крабом?)
2ACV06 «The Lesser of Two Evils» (Меньшее из двух зол)
2ACV07 «Put Your Head on My Shoulder» (Положи свою голову мне на плечо)
2ACV08 «Raging Bender» (Бешеный Бендер)
2ACV09 «A Bicyclops Built for Two» (Циклопов должно быть двое)
2ACV10 «A Clone of My Own» (Мой собственный клон)
2ACV11 «How Hermes Requisitioned His Groove Back» (Как Гермес конфисковал назад любимую рутину)
2ACV12 «The Deep South» (Глубокий Юг)
2ACV13 «Bender Gets Made» (Бендер входит в дело)
2ACV14 «Mother’s Day» (День Матери)
2ACV15 «The Problem with Popplers» (Проблема с попплерами)
2ACV16 «Anthology of Interest I» (Антология Интересов I)
2ACV17 «War Is the H-Word» (Война — адское слово)
2ACV18 «The Honking» (Гудок)
2ACV19 «The Cryonic Woman» (Отмороженная женщина)

Основные персонажи

Действие мультфильма «Футурама» сосредоточено вокруг семи персонажей, работающих в компании по доставке грузов «Межпланетный экспресс». А основные персонажи «Футурамы» соответствуют ряду основных персонажей Комедия дель арте.

Филип Джей Фрай

Фи́лип Джей Фрай (англ. Philip J. Fry; родился 9 августа 1974), или просто Фрай — главный герой мультсериала Футурама, неудачник и бездельник.
Он озвучен Билли Вестом в оригинальной версии. Фрай — парень из XX века, работавший разносчиком пиццы, проснувшийся в XXX веке после того,
как случайно попал в криогенную камеру и был заморожен в канун нового, 2000 года. В сериале упоминается возраст 25 лет.
Имя Филип было дано Фраю Мэттом Грейнингом в память о Филе Хартмане, который был отобран для озвучивания сериала, но погиб ещё до начала работы.

Бендер Сгибальщик Родригес

Бендер Сгибальщик Родригес (англ. Bender Bending Rodriguez — дословно «Сгибальщик Сгибающий Родригес»)
модель — Сгибающий модуль 22 серийный номер 2716057 — герой мультсериала «Футурама», робот-сгибальщик.
Бендер — комический антигерой, сквернослов, алкоголик, заядлый курильщик сигар, почитатель порнографии для роботов (в виде электрических схем),
клептоман, повар (его еда в большинстве случаев по меньшей мере несъедобна, часто опасна для жизни).
В критической ситуации зачастую единственный, кто впадает в панику. В серии Benderama он был полным лентяем.
Обычно Бендер ведёт себя как законченный эгоист, циник, мизантроп, однако изредка в нём просыпается сочувствие
(например, к черепахе в эпизоде «Crimes of the Hot») и дружеская привязанность к Фраю.
В некоторых эпизодах Футурамы Бендер является главным действующим лицом.

Туранга Лила

Тура́нга Ли́ла (англ. Turanga Leela; родилась 29 июля 2975), чаще просто Лила — основной женский персонаж мультсериала «Футурама».
Является мутантом, но имеет минимальные физические отклонения, которые сводятся к циклопии — одному глазу вместо двух.
Это решительная, спортивная, привлекательная девушка, капитан и пилот космического корабля курьерской фирмы «Planet Express».
Своё имя она получила от наиболее известной оркестровой работы французского композитора Оливье Мессиана — «Турангалила-симфония».
Само название «Турангалила», имеющее санскритское происхождение, можно перевести как «песнь любви». По мнению Нила Геймана, она получила имя от Лилы из сериала «Доктор Кто».

Хьюберт Дж. Фарнсворт

Хьюберт Дж. Фарнсворт (англ. Hubert J. Farnsworth) — персонаж мультсериала «Футурама».
Профессор, старейший член Академии Изобретателей, владелец и основатель компании Planet Express.
В сериале является праплемянником и правнуком Фрая. Имеет клона по имени Кьюберт Фарнсворт, который фактически является также родственником.

Доктор Джон Зойдберг

Доктор Джон Зойдберг (англ. Doctor John Zoidberg; родился 5 августа 2914 года), известный также как Доктор Зойдберг, или просто Зойдберг — человеко-омароподобный инопланетянин с планеты Декапод-10.
Он работает врачом в компании Planet Express, хотя следует признать, что он очень мало знает об анатомии и физиологии человека и, тем более, о методах лечения, часто путая людей с роботами и ракообразными.
Докторскую же степень по «убийствоведению и убийствоводству» он получил по почте. В серии The Duh-Vinci Code показывает, что хорошо разбирается в искусстве и с гордостью объявляет, что он доктор искусствоведения.

Гермес Конрад

Гермес Конрад — бухгалтер Межпланетного Экспресса, родом из Ямайки. Он является бюрократом 36-ого уровня (в ходе сериала разжалован до 37-ого уровня) и гордится этим, он сторонник упорядоченности во всём и обожает заниматься скучной бумажной работой бюрократа. Также Гермес является бывшим чемпионом Олимпийского Лимбо — спорта, образованного от популярного развлечения. Он покинул этот спорт после 2980-го года, когда один молодой фанат, подражая ему, сломал свой позвоночник и погиб. У Гермеса есть жена, ЛаБарбара, и 12-тилетний сын, Дуайт.

Эми Вонг

Эми Вонг (англ. Amy Wong), 4 августа 2980 — одна из главных героев мультсериала «Футурама». Училась в Марсианском Университете вплоть до серии «That Darn Katz!» (где она получает докторскую степень в области прикладной физики) и подрабатывает стажёром в Межпланетном Экспрессе (профессор Фарнсворт держит её, так как у неё одна группа крови с ним).
Ссылка на предыдущие и альтернативные раздачи: Futurama
Семпл: multi-up
Качество: DVDRemux
Формат: MKV
Видео: NTSC, 720x480 (4:3), 23.976 fps, 6 318 Kbps
Аудио: AC-3, 48.0 KHz, 2 channels, 192 Kbps [Русский, Многоголосый закадровый (Ren-TV)]
Аудио 2: AC-3, 48.0 KHz, 2 channels, 224 Kbps [Русский, Одноголосый закадровый (Михаил Яроцкий (kyberpunk))]
Аудио 3: MP3, 48 KHz, 2 channels, 192 Kbps [Украинский, Дублированный (Пилот по заказу М1)]
Аудио 4: AC-3, 48.0 KHz, 2 channels, 192 Kbps [Английский, Оригинал]
Аудио 5: AC-3, 48.0 KHz, 2 channels, 192 Kbps [Английский, Комментарии]
Субтитры: Русские (UTF-8), Английские (UTF-8)

Подробные технические данные

Общее
Уникальный идентификатор : 248599840211421046346055183095008160732 (0xBB06966FCAAC0FE68E03AE9EC2796BDC)
Полное имя : C:\Futurama.S02.NTSC.DVDRemux\2ACV01 «I Second That Emotion» (Я повторяю эту эмоцию).mkv
Формат : Matroska
Версия формата : Version 4 / Version 2
Размер файла : 1,14 Гбайт
Продолжительность : 22 м. 32 с.
Режим общего битрейта : Переменный
Общий поток : 7219 Кбит/сек
Дата кодирования : UTC 2017-03-31 15:57:42
Программа кодирования : mkvmerge v10.0.0 ('To Drown In You') 64bit
Библиотека кодирования : libebml v1.3.4 + libmatroska v1.4.5
Видео
Идентификатор : 1
Формат : MPEG Video
Версия формата : Version 2
Профиль формата : Main@Main
Параметр BVOP формата : Да
Параметр матрицы формата : Выборочная
Параметр GOP формата : Variable
Идентификатор кодека : V_MPEG2
Идентификатор кодека/Информация : MPEG 1 or 2 Video
Продолжительность : 22 м. 32 с.
Вид битрейта : Переменный
Битрейт : 6318 Кбит/сек
Максимальный битрейт : 9800 Кбит/сек
Ширина : 720 пикселей
Высота : 480 пикселей
Соотношение сторон : 4:3
Режим частоты кадров : Переменный
Частота кадров : 24,182 кадра/сек
Частота кадров в оригинале : 23,976 (24000/1001) кадра/сек
Стандарт вещания : Component
Цветовое пространство : YUV
Субдискретизация насыщенности : 4:2:0
Битовая глубина : 8 бит
Тип развёртки : Прогрессивная
Порядок развёртки : 2:3 Pulldown
Метод сжатия : С потерями
Бит/(Пиксели*Кадры) : 0.756
Временной код первого кадра : 00:59:58:00
Оригинал временного кода : Group of pictures header
Размер потока : 1019 Мбайт (88%)
Язык : English
Default : Нет
Forced : Нет
Основные цвета : BT.601 NTSC
Характеристики трансфера : BT.601
Коэффициенты матрицы : BT.601
Аудио #1
Идентификатор : 2
Формат : AC-3
Формат/Информация : Audio Coding 3
Параметр Endianness формата : Big
Идентификатор кодека : A_AC3
Продолжительность : 22 м. 32 с.
Вид битрейта : Постоянный
Битрейт : 192 Кбит/сек
Каналы : 2 канала
Расположение каналов : Front: L R
Частота : 48,0 КГц
Частота кадров : 31,250 кадров/сек (1536 spf)
Битовая глубина : 16 бит
Метод сжатия : С потерями
Размер потока : 31,0 Мбайт (3%)
Заголовок : Многоголосый закадровый (Ren-TV)
Язык : Russian
ServiceKind/String : Complete Main
Default : Да
Forced : Нет
Аудио #2
Идентификатор : 3
Формат : AC-3
Формат/Информация : Audio Coding 3
Параметр Endianness формата : Big
Идентификатор кодека : A_AC3
Продолжительность : 22 м. 32 с.
Вид битрейта : Постоянный
Битрейт : 224 Кбит/сек
Каналы : 2 канала
Расположение каналов : Front: L R
Частота : 48,0 КГц
Частота кадров : 31,250 кадров/сек (1536 spf)
Битовая глубина : 16 бит
Метод сжатия : С потерями
Размер потока : 36,1 Мбайт (3%)
Заголовок : Авторский (одноголосый) Михаил Яроцкий (kyberpunk)
Язык : Russian
ServiceKind/String : Complete Main
Default : Нет
Forced : Нет
Аудио #3
Идентификатор : 4
Формат : MPEG Audio
Версия формата : Version 1
Профиль формата : Layer 3
Идентификатор кодека : A_MPEG/L3
Идентификатор кодека/Подсказка : MP3
Продолжительность : 22 м. 32 с.
Вид битрейта : Постоянный
Битрейт : 192 Кбит/сек
Каналы : 2 канала
Частота : 48,0 КГц
Частота кадров : 41,667 кадра/сек (1152 spf)
Метод сжатия : С потерями
Размер потока : 31,0 Мбайт (3%)
Заголовок : Дублированный (Пилот по заказу М1)
Язык : Ukrainian
Default : Нет
Forced : Нет
Аудио #4
Идентификатор : 5
Формат : AC-3
Формат/Информация : Audio Coding 3
Режим : Dolby Digital
Параметр Endianness формата : Big
Идентификатор кодека : A_AC3
Продолжительность : 22 м. 32 с.
Вид битрейта : Постоянный
Битрейт : 192 Кбит/сек
Каналы : 2 канала
Расположение каналов : Front: L R
Частота : 48,0 КГц
Частота кадров : 31,250 кадров/сек (1536 spf)
Битовая глубина : 16 бит
Метод сжатия : С потерями
Размер потока : 31,0 Мбайт (3%)
Заголовок : Original
Язык : English
ServiceKind/String : Complete Main
Default : Нет
Forced : Нет
Аудио #5
Идентификатор : 6
Формат : AC-3
Формат/Информация : Audio Coding 3
Режим : Dolby Digital
Параметр Endianness формата : Big
Идентификатор кодека : A_AC3
Продолжительность : 22 м. 32 с.
Вид битрейта : Постоянный
Битрейт : 96,0 Кбит/сек
Каналы : 2 канала
Расположение каналов : Front: L R
Частота : 48,0 КГц
Частота кадров : 31,250 кадров/сек (1536 spf)
Битовая глубина : 16 бит
Метод сжатия : С потерями
Размер потока : 15,5 Мбайт (1%)
Заголовок : Directors comments
Язык : English
ServiceKind/String : Complete Main
Default : Нет
Forced : Нет
Текст
Идентификатор : 7
Формат : UTF-8
Идентификатор кодека : S_TEXT/UTF8
Идентификатор кодека/Информация : UTF-8 Plain Text
Продолжительность : 21 м. 49 с.
Битрейт : 75 бит/сек
ElementCount : 446
Размер потока : 12,1 Кбайт (0%)
Язык : English
Default : Да
Forced : Нет
Меню
00:00:00.000 : en:Chapter 01
00:00:39.406 : en:Chapter 02
00:06:44.237 : en:Chapter 03
00:14:48.888 : en:Chapter 04
00:21:54.479 : en:Chapter 05

Скриншоты

[www.cybertorrent.ru].t2767.torrent 
Торрент: Зарегистрирован [ 2018-02-16 14:35 ] · EA146D3C588EA13367F2B6160FBC5814DB147A3B

Скачать .torrent

Скачать

55 KB

Статус: проверено
Скачан: 0 раз
Размер: 21,15 GB
Профиль [ЛС]
Показать сообщения:    

Текущее время: 12-Дек 17:53

Часовой пояс: UTC ± 0



Вы не можете начинать темы
Вы не можете отвечать на сообщения
Вы не можете редактировать свои сообщения
Вы не можете удалять свои сообщения
Вы не можете голосовать в опросах
Вы не можете прикреплять файлы к сообщениям
Вы можете скачивать файлы
Torrents24.ru открытый BitTorrent Torrents24.pl открытый BitTorrent CyberTorrent.ru открытый BitTorrent BtList.ru рейтинг BitTorrent трекеров Яндекс.Метрика