Статистика раздачи
Размер:  6,8 GB   |    Зарегистрирован:  8 месяцев 5 дней   |    Скачан:  0 раз

Полного источника не было: Никогда

 
   
 
 

lom ®

Пол:
Не указан
Стаж:
8 месяцев 6 дней
Сообщений:
195

Боруто: Фильм Наруто / Boruto: Naruto the Movie

-Страна: Япония
Год выпуска: 2015 г.
Жанр: приключения, комедия, боевые искусства, сёнэн
Тип: Movie
Продолжительность: 95 мин.
Режиссер: Ямасита Хироюки
Студия:
Описание: Боруто Узумаки — сын Наруто Узумаки, героя Скрытого листа и 7 Хокагэ. Главный герой сея истории весьма одарен, но ненавидит работу Наруто и поэтому считает его неважным отцом. Боруто считает своего отца героем, и в его сердце возникает желание превзойти героический путь отца, и лучшей идеей для этого становится намерение стать учеником человека, который знал его отца с ранних лет и являлся одновременно соперником и лучшим другом. Но что думает об этом сам Саскэ Учиха? В то время, как команда Боруто обзаведется своим сэнсэем, Боруто будет называть учителем Саскэ. Итак, наступает новая эпоха для жизни нового поколения шиноби.-Субтитры фансаб-Альянса: Firegorn Team
Перевод, оформление: Redgar-firegorn
Редактирование: 8Bochan8
Сверка с японским: Nucha
Спонсор перевода: Павел Тыщенко-Качество: BDRip
Тип релиза: Без хардсаба
Формат видео: MKV
Релиз/Автор рипа: [SOFCJ-Raws]
Совместимость с бытовыми плеерами: Нет
Видео: H.264 | 1920x1040 | 8 201 Kbps | 23.976 | 10 bit
Аудио Jap: FLAC | 595 Kbps | 48 Hz | 2 ch (Включена по умолчанию)
Аудио Jap: FLAC | 1 419 Kbps | 48 Hz | 6 ch
Субтитры: Ass | Встроенные | Цветная версия (Включены по умолчанию)
Субтитры: Ass | Встроенные | Чёрно-белая версия. (В составе контейнера)

Подробные тех. данные

General
Unique ID : 226277695584467310688337366817552785716 (0xAA3B7FBC52473213BA2237166CBCE134)
Complete name : D:\Раздачи\Boruto [1080p]\Boruto - Naruto the Movie (BDRip 1920x1040 x264 10bit FLACx2).mkv
Format : Matroska
Format version : Version 4 / Version 2
File size : 6.80 GiB
Duration : 1h 35mn
Overall bit rate mode : Variable
Overall bit rate : 10.2 Mbps
Movie name : [SOFCJ-Raws] Boruto - Naruto the Movie (BDRip 1920x1040 x264 10bit FLACx2)
Encoded date : UTC 2016-07-15 06:03:14
Writing application : mkvmerge v8.8.0 ('Wind at my back') 64bit
Writing library : libebml v1.3.3 + libmatroska v1.4.4
Attachments : Comic_Sans_0_0.ttf / PresentScript_0.ttf / Comic_Sans_0_0.ttf / PresentScript_0.ttf
Video
ID : 1
Format : AVC
Format/Info : Advanced Video Codec
Format profile : High 10@L4.1
Format settings, CABAC : Yes
Format settings, ReFrames : 4 frames
Codec ID : V_MPEG4/ISO/AVC
Duration : 1h 35mn
Bit rate : 8 201 Kbps
Width : 1 920 pixels
Height : 1 040 pixels
Display aspect ratio : 1.85:1
Frame rate mode : Constant
Frame rate : 23.976 (24000/1001) fps
Color space : YUV
Chroma subsampling : 4:2:0
Bit depth : 10 bits
Scan type : Progressive
Bits/(Pixel*Frame) : 0.171
Stream size : 5.46 GiB (80%)
Writing library : x264 core 148 r2705+54 9f484c1 t_mod_Custom [10-bit@all X86_64]
Encoding settings : cabac=1 / ref=4 / deblock=1:-2:-2 / analyse=0x3:0x133 / me=umh / subme=10 / psy=1 / fade_compensate=0.00 / psy_rd=0.70:0.00 / mixed_ref=1 / me_range=24 / chroma_me=1 / trellis=2 / 8x8dct=1 / cqm=0 / deadzone=21,11 / fast_pskip=1 / chroma_qp_offset=-2 / threads=12 / lookahead_threads=2 / sliced_threads=0 / nr=0 / decimate=0 / interlaced=0 / bluray_compat=0 / constrained_intra=0 / fgo=0 / bframes=8 / b_pyramid=2 / b_adapt=2 / b_bias=0 / direct=3 / weightb=1 / open_gop=0 / weightp=2 / keyint=250 / keyint_min=23 / scenecut=40 / intra_refresh=0 / rc=crf / mbtree=0 / crf=17.0000 / qcomp=0.60 / qpmin=10:10:10 / qpmax=38:38:38 / qpstep=4 / ip_ratio=1.40 / pb_ratio=1.30 / aq=1:1.00 / aq-sensitivity=10.00 / aq-factor=1.00:1.00:1.00 / aq2=0 / aq3=0
Language : Japanese
Default : Yes
Forced : No
Color range : Limited
Color primaries : BT.709
Transfer characteristics : BT.709
Matrix coefficients : BT.709
Audio #1
ID : 2
Format : FLAC
Format/Info : Free Lossless Audio Codec
Codec ID : A_FLAC
Duration : 1h 35mn
Bit rate mode : Variable
Bit rate : 595 Kbps
Channel(s) : 2 channels
Channel positions : Front: L R
Sampling rate : 48.0 KHz
Frame rate : 11.719 fps (4096 spf)
Bit depth : 16 bits
Stream size : 405 MiB (6%)
Title : 2.0
Writing library : libFLAC 1.3.1 (UTC 2014-11-25)
Language : Japanese
Default : Yes
Forced : No
Audio #2
ID : 3
Format : FLAC
Format/Info : Free Lossless Audio Codec
Codec ID : A_FLAC
Duration : 1h 35mn
Bit rate mode : Variable
Bit rate : 1 419 Kbps
Channel(s) : 6 channels
Channel positions : Front: L C R, Back: L R, LFE
Sampling rate : 48.0 KHz
Frame rate : 11.719 fps (4096 spf)
Bit depth : 16 bits
Stream size : 968 MiB (14%)
Title : 5.1
Writing library : libFLAC 1.3.1 (UTC 2014-11-25)
Language : Japanese
Default : No
Forced : No
Text #1
ID : 4
Format : ASS
Codec ID : S_TEXT/ASS
Codec ID/Info : Advanced Sub Station Alpha
Duration : 1h 34mn
Bit rate : 113 bps
Count of elements : 1023
Compression mode : Lossless
Stream size : 78.3 KiB (0%)
Title : [Firegorn Team]
Language : Russian
Default : Yes
Forced : No
Text #2
ID : 5
Format : ASS
Codec ID : S_TEXT/ASS
Codec ID/Info : Advanced Sub Station Alpha
Duration : 1h 34mn
Bit rate : 123 bps
Count of elements : 1022
Compression mode : Lossless
Stream size : 85.2 KiB (0%)
Title : [Firegorn Team]
Language : Russian
Default : No
Forced : No

Отличия

http://cybertorrent.ru/viewtopic.php?t=5253110
• [480p] Здесь [1080p]
http://cybertorrent.ru/viewtopic.php?t=5253954
• [720p] здесь [1080p]

Скриншоты


Все раздачи Firegorn Team

Не забываем нажимать на кнопку "сказать спасибо" тем самым выражая свою благодарность!!!-Раздавать буду преимущественно с 7:00до 00:00
[www.cybertorrent.ru].t2760.torrent 
Торрент: Зарегистрирован [ 2018-02-16 14:35 ] · B05AD6D1FC26E49A13B78759C2B136DEA9DA06A0

Скачать .torrent

Скачать

18 KB

Статус: проверено
Скачан: 0 раз
Размер: 6,8 GB
Профиль [ЛС]
Показать сообщения:    

Текущее время: 22-Окт 06:15

Часовой пояс: UTC ± 0



Вы не можете начинать темы
Вы не можете отвечать на сообщения
Вы не можете редактировать свои сообщения
Вы не можете удалять свои сообщения
Вы не можете голосовать в опросах
Вы не можете прикреплять файлы к сообщениям
Вы можете скачивать файлы
Torrents24.ru открытый BitTorrent Torrents24.pl открытый BitTorrent CyberTorrent.ru открытый BitTorrent BtList.ru рейтинг BitTorrent трекеров Яндекс.Метрика