Статистика раздачи
Размер:  4,19 GB   |    Зарегистрирован:  8 месяцев 3 дня   |    Скачан:  0 раз

Полного источника не было: Никогда

 
   
 
 

firebird ®

Пол:
Не указан
Стаж:
8 месяцев 4 дня
Сообщений:
335

-Покемон: Фильм Первый - Мьюту Наносит Ответный Удар
Pokemon: The First Movie - Mewtwo Strikes Back
[FHD 1080p][HD 720p]-Pokemon the Movie [FHD 1080p]:|1| |2| |3| |4| |5| |6| |7| |8| |9| |10| |11| |12| |13| |14b и 14w| |15| |16| |17| |18| |19| |20|- Страна: Япония / США
Год выпуска: 18 июля 1998 г.
Жанр: детский, комедия, приключения, фэнтези.
Тип: Movie
Продолжительность: 74 мин
Режиссер: Кунихико Юяма
Студия: OLM
-Описание:
Приключение начинается, когда появляется Мьюту - искусственно созданный покемон на основе ДНК Мью, самого редкого из всех покемонов. Мьюту сбегает из лаборатории, в которой его создали, и намерен доказать своё превосходство. Он привлекает несколько талантливых тренеров на невиданную битву. Разумеется, Эш и друзья рады принять вызов!(c)pokemon.com
-Информация о релизе:
BDRip, сведение звука: LightEssence
Дубляж:
Мост Видео (Лицензионный диск: melyan)
Авторская озвучка:
Петр Гланц (с сайта автора)
Сергей Визгунов (Захват звука VHS: ALEKS KV, charman)
Автор неизвестен (Захват звука VHS: Sveners)
Двухголосая озвучка НТВ+:
Нина Табилевич и Александр Белый (запись трансляции: Ирия Камеусова)-Качество: BDRip | Тип релиза: Без хардсаба | Формат видео: MKV
Релиз/Автор рипа: LightEssence
Совместимость с бытовыми плеерами: Нет-Обновление от 08.10.2017
Видео: x264(8bit), 1920х1080, 6000 kbps, 23.976 fps(NTSC)
в составе контейнера:
Аудио 1: AC3, 640kbps, 48kHz, 6ch - Английский; Озвучка 1: [DUB] - Многоголосый, Дублированный [Оригинал]
внешними файлами:
Аудио 2: AC3, 384kbps, 48kHz, 6ch - Русский; Озвучка 2: [DUB] - Многоголосый, Дублированный [Мост Видео]
Аудио 3: AC3, 192kbps, 48kHz, 2ch - Русский; Озвучка 3: [AVO] - Одноголосый, Закадровый [Неизвестен Мужской]
Аудио 4: AC3, 192kbps, 48kHz, 2ch - Русский; Озвучка 4: [DVO] - Двухголосый, Закадровый [НТВ+, Нина Табилевич и Александр Белый]
Аудио 5: AC3, 448kbps, 48kHz, 6ch - Русский; Озвучка 5: [AVO] - Одноголосый, Закадровый [Петр Гланц]
Аудио 6: AC3, 192kbps, 48kHz, 2ch - Русский; Озвучка 6: [AVO] - Одноголосый, Закадровый [Сергей Визгунов]
Субтитры 1: SRT, Русский - SOFTITLER [SubRip by LightEssence]
Субтитры 2: SRT, Английский - Pokemon Company [SubRip by LightEssence]-

Как подключить внешнее аудио и субтитры

Для просмотра на ПК
с озвучкой: переместите нужные mka файлы из папки "Russian Sound -> [наименование озвучки]" в папку с видео.
с субтитрами: переместите srt файл из папки "Russian Sub" или "English Sub", в папку с видео.
-

Скриншоты

Подробные тех. данные

Код:General
Unique ID : 200386720780124653980014830541832055537 (0x96C1141F2E9C07EE8ACF02D71EA9EAF1)
Complete name : F:\Покемон\Pokemon the Movie [1080p]\01. Pokemon The First Movie [BDRip-1080p]\01.Pokemon The First Movie - Mewtwo Strikes Back [BDRip-1080p][LightEssence].mkv
Format : Matroska
Format version : Version 4 / Version 2
File size : 3.45 GiB
Duration : 1 h 14 min
Overall bit rate : 6 645 kb/s
Encoded date : UTC 2017-10-07 19:03:26
Writing application : mkvmerge v16.0.0 ('Protest') 64-bit
Writing library : libebml v1.3.5 + libmatroska v1.4.8
Video
ID : 1
Format : AVC
Format/Info : Advanced Video Codec
Format profile : High@L4
Format settings, CABAC : Yes
Format settings, RefFrames : 4 frames
Codec ID : V_MPEG4/ISO/AVC
Duration : 1 h 14 min
Bit rate : 6 000 kb/s
Width : 1 920 pixels
Height : 1 080 pixels
Display aspect ratio : 16:9
Frame rate mode : Constant
Frame rate : 23.976 (24000/1001) FPS
Color space : YUV
Chroma subsampling : 4:2:0
Bit depth : 8 bits
Scan type : Progressive
Bits/(Pixel*Frame) : 0.121
Stream size : 3.12 GiB (90%)
Title : Pokemon: The First Movie - Mewto Strikes Back - 1998 BDRip - [LightEssence] [1080p]
Writing library : x264 core 146 r2538 121396c
Encoding settings : cabac=1 / ref=3 / deblock=1:0:0 / analyse=0x3:0x133 / me=hex / subme=5 / psy=1 / psy_rd=1.00:0.00 / mixed_ref=0 / me_range=16 / chroma_me=1 / trellis=1 / 8x8dct=1 / cqm=0 / deadzone=21,11 / fast_pskip=1 / chroma_qp_offset=0 / threads=12 / lookahead_threads=3 / sliced_threads=0 / nr=0 / decimate=1 / interlaced=0 / bluray_compat=0 / constrained_intra=0 / bframes=16 / b_pyramid=2 / b_adapt=1 / b_bias=0 / direct=1 / weightb=0 / open_gop=0 / weightp=2 / keyint=250 / keyint_min=23 / scenecut=40 / intra_refresh=0 / rc_lookahead=40 / rc=abr / mbtree=1 / bitrate=6000 / ratetol=1.0 / qcomp=0.60 / qpmin=0 / qpmax=69 / qpstep=4 / ip_ratio=1.40 / aq=1:1.00
Language : English
Default : Yes
Forced : No
Color range : Limited
Color primaries : BT.709
Transfer characteristics : BT.709
Matrix coefficients : BT.709
Audio
ID : 2
Format : AC-3
Format/Info : Audio Coding 3
Format settings, Endianness : Big
Codec ID : A_AC3
Duration : 1 h 14 min
Bit rate mode : Constant
Bit rate : 640 kb/s
Channel(s) : 6 channels
Channel positions : Front: L C R, Side: L R, LFE
Sampling rate : 48.0 kHz
Frame rate : 31.250 FPS (1536 SPF)
Bit depth : 16 bits
Compression mode : Lossy
Stream size : 341 MiB (10%)
Language : English
Service kind : Complete Main
Default : No
Forced : No

Отличия

BDRip 720p [LightEssence] - 1080p
DVD [melyan] - BDRip, 1080p
DVDRip [cnauk] - BDRip, 1080p

Постер в оригинальном размере

Скачать
-Внимание!!!
Если торрент не видит анонсеры рутрекера и не видит сидов (раздача выделена красным цветом в uTorrent) рекомендую воспользоваться этой или другими инструкциями по обходу блокировки
[www.cybertorrent.ru].t2758.torrent 
Торрент: Зарегистрирован [ 2018-02-16 14:35 ] · AED5F5DB3F8F8BD7E87894A3DF856927A0731A7D

Скачать .torrent

Скачать

12 KB

Статус: проверено
Скачан: 0 раз
Размер: 4,19 GB
Профиль [ЛС]
Показать сообщения:    

Текущее время: 20-Окт 07:03

Часовой пояс: UTC ± 0



Вы не можете начинать темы
Вы не можете отвечать на сообщения
Вы не можете редактировать свои сообщения
Вы не можете удалять свои сообщения
Вы не можете голосовать в опросах
Вы не можете прикреплять файлы к сообщениям
Вы можете скачивать файлы
Torrents24.ru открытый BitTorrent Torrents24.pl открытый BitTorrent CyberTorrent.ru открытый BitTorrent BtList.ru рейтинг BitTorrent трекеров Яндекс.Метрика