Статистика раздачи
Размер:  1,16 GB   |    Зарегистрирован:  6 месяцев 4 дня   |    Скачан:  0 раз

Полного источника не было: Никогда

 
   
 
 

lom ®

Пол:
Не указан
Стаж:
6 месяцев 6 дней
Сообщений:
166

Боруто: Фильм Наруто / Boruto: Naruto the Movie
- Страна: Япония
Год выпуска: 2015 г.
Жанр: приключения, комедия, боевые искусства, сёнэн
Тип: Movie
Продолжительность: 95 мин.
Режиссер: Ямасита Хироюки
Студия: -Описание: Боруто Узумаки — сын Наруто Узумаки, героя Скрытого листа и 7 Хокагэ. Главный герой сея истории весьма одарен, но ненавидит работу Наруто и поэтому считает его неважным отцом. Боруто считает своего отца героем, и в его сердце возникает желание превзойти героический путь отца, и лучшей идеей для этого становится намерение стать учеником человека, который знал его отца с ранних лет и являлся одновременно соперником и лучшим другом. Но что думает об этом сам Саскэ Учиха? В то время, как команда Боруто обзаведется своим сэнсэем, Боруто будет называть учителем Саскэ. Итак, наступает новая эпоха для жизни нового поколения шиноби.-Субтитры фансаб-Альянса: Firegorn Team
Перевод, оформление: Redgar-firegorn
Редактирование: 8Bochan8
Сверка с японским: Nucha
Спонсор перевода: Павел Тыщенко-Качество: BDRip
Тип релиза: Без хардсаба
Формат видео: MKV
Релиз/Автор рипа: [Redgar-firegorn]
Видео: H.264 | 848x480 | 1 500 Kbps | 23.976 fps | 8 bit
Аудио Jap: ACС | 192 Kbps | 48.0 KHz | 2 ch
Субтитры: Ass | Встроенные | Цветная версия (Включены по умолчанию)
Субтитры: Ass | Встроенные | Чёрно-белая версия. (В составе контейнера)

Подробные тех. данные

General
Unique ID : 227829496437143808632199635482656336166 (0xAB665D6CBA2C73ABAA42F498CB2B6926)
Complete name : D:\Раздачи\Boruto [480p]\[Firegorn Team] Boruto - Naruto the Movie (BDRip 848x480 x264 ACC).mkv
Format : Matroska
Format version : Version 4 / Version 2
File size : 1.16 GiB
Duration : 1h 35mn
Overall bit rate : 1 746 Kbps
Encoded date : UTC 2016-07-14 11:31:44
Writing application : mkvmerge v8.8.0 ('Wind at my back') 64bit
Writing library : libebml v1.3.3 + libmatroska v1.4.4 / Lavf57.40.101
Attachments : Comic_Sans_0_0.ttf / PresentScript_0.ttf / Comic_Sans_0_0.ttf / PresentScript_0.ttf
Video
ID : 1
Format : AVC
Format/Info : Advanced Video Codec
Format profile : Main@L4.1
Format settings, CABAC : Yes
Format settings, ReFrames : 2 frames
Codec ID : V_MPEG4/ISO/AVC
Duration : 1h 35mn
Bit rate : 1 500 Kbps
Width : 848 pixels
Height : 480 pixels
Display aspect ratio : 1.85:1
Frame rate mode : Constant
Frame rate : 23.976 (24000/1001) fps
Color space : YUV
Chroma subsampling : 4:2:0
Bit depth : 8 bits
Scan type : Progressive
Bits/(Pixel*Frame) : 0.154
Stream size : 1.03 GiB (89%)
Writing library : x264 core 148 r2643
Encoding settings : cabac=1 / ref=2 / deblock=1:1:1 / analyse=0x1:0x131 / me=hex / subme=7 / psy=1 / psy_rd=0.40:0.00 / mixed_ref=0 / me_range=16 / chroma_me=1 / trellis=1 / 8x8dct=0 / cqm=0 / deadzone=21,11 / fast_pskip=1 / chroma_qp_offset=-2 / threads=12 / lookahead_threads=2 / sliced_threads=0 / nr=0 / decimate=1 / interlaced=0 / bluray_compat=0 / constrained_intra=0 / bframes=3 / b_pyramid=0 / b_adapt=1 / b_bias=0 / direct=3 / weightb=1 / open_gop=0 / weightp=2 / keyint=239 / keyint_min=23 / scenecut=40 / intra_refresh=0 / rc_lookahead=40 / rc=abr / mbtree=1 / bitrate=1500 / ratetol=1.0 / qcomp=0.60 / qpmin=10 / qpmax=69 / qpstep=4 / vbv_maxrate=24000 / vbv_bufsize=24000 / nal_hrd=none / filler=0 / ip_ratio=1.40 / aq=3:0.60
Language : Japanese
Default : Yes
Forced : No
Audio
ID : 2
Format : AAC
Format/Info : Advanced Audio Codec
Format profile : Main
Codec ID : A_AAC
Duration : 1h 35mn
Bit rate : 192 Kbps
Channel(s) : 2 channels
Channel positions : Front: L R
Sampling rate : 48.0 KHz
Frame rate : 46.875 fps (1024 spf)
Compression mode : Lossy
Stream size : 132 MiB (11%)
Writing library : Lavc57.47.100 aac
Language : Japanese
Default : No
Forced : No
Text #1
ID : 3
Format : ASS
Codec ID : S_TEXT/ASS
Codec ID/Info : Advanced Sub Station Alpha
Duration : 1h 34mn
Bit rate : 113 bps
Count of elements : 1023
Compression mode : Lossless
Stream size : 78.3 KiB (0%)
Title : [Firegorn Team] Цветные
Language : Russian
Default : Yes
Forced : No
Text #2
ID : 4
Format : ASS
Codec ID : S_TEXT/ASS
Codec ID/Info : Advanced Sub Station Alpha
Duration : 1h 34mn
Bit rate : 123 bps
Count of elements : 1022
Compression mode : Lossless
Stream size : 85.2 KiB (0%)
Title : [Firegorn Team] Default
Language : Russian
Default : No
Forced : No

Скриншоты


Все раздачи Firegorn Team

Не забываем нажимать на кнопку "сказать спасибо" тем самым выражая свою благодарность!!!-Раздавать буду преимущественно с 7:00до 00:00
[www.cybertorrent.ru].t2757.torrent 
Торрент: Зарегистрирован [ 2018-02-16 14:35 ] · BB58CB6EA3AD60D7BFAA8C3A871A597CB14AAA77

Скачать .torrent

Скачать

12 KB

Статус: проверено
Скачан: 0 раз
Размер: 1,16 GB
Профиль [ЛС]
Показать сообщения:    

Текущее время: 21-Авг 13:25

Часовой пояс: UTC ± 0



Вы не можете начинать темы
Вы не можете отвечать на сообщения
Вы не можете редактировать свои сообщения
Вы не можете удалять свои сообщения
Вы не можете голосовать в опросах
Вы не можете прикреплять файлы к сообщениям
Вы можете скачивать файлы
Torrents24.ru открытый BitTorrent Torrents24.pl открытый BitTorrent CyberTorrent.ru открытый BitTorrent BtList.ru рейтинг BitTorrent трекеров Яндекс.Метрика