Статистика раздачи
Размер:  9,1 GB   |    Зарегистрирован:  8 месяцев 5 дней   |    Скачан:  0 раз

Полного источника не было: Никогда

 
   
 
 

firebird ®

Пол:
Не указан
Стаж:
8 месяцев 6 дней
Сообщений:
335

Покемон: XYZ / Pokemon the Series: XYZ- Страна: Япония / США
Год выпуска: 2016 г.
Жанр: приключения, комедия, фэнтези
Тип: TV-сериал
Серии: 48 эпизодов по 21 минуте
Автор оригинала: Тадзири Сатоси
Режиссер оригинала: Юяма Кунихико
Студия: OLM-Релиз подготовлен группой Free Releasers Team "SORA"
  • Производство: SDI Media Russia
  • Захват звука: Vinozavr (телеканал "2х2")
  • Сведение звука: Ampho_dub
  • Роли озвучивали: Иван Калинин, Андрей Гриневич, Илья Хвостиков, Алёна Созинова, Анастасия Студилова, Антон Савенков, Антон Колесников, Мария Иващенко, Лариса Некипелова, Петр Иващенко, Дарья Фролова, Дмитрий Филимонов, Александр Дасевич, Ольга Зубкова, Екатерина Семёнова, Сергей Смирнов, Прохор Чеховской, Татьяна Шитова, Татьяна Веселкина, Ольга Кузьмина, Ольга Голованова-Описание: Кульминация приключений Эша и Пикачу в регионе Калос в "Покемон: Сериал: XYZ"! Остался всего один значок для прохождения в Лигу Калоса, и Эш не сдаваясь преследует свою мечту стать мастером покемонов. Мечта Серены также близка к исполнению, ведь скоро она будет соревноваться за корону Королевы Калоса. Бонни нашла себе нового друга и любимца в лице милого, но загадочного Сквиши, однако вскоре становится ясно, что силы зла не дремлют и могут разлучить их. Достигнет ли таинственная команда "Пламя" своих целей, или же наши герои смогут защитить Сквиши и весь Калос от их пылающих амбиций?-Качество: WEBRip | Формат: AVI | Энкод: Ampho_dub
    Тип релиза: Без хардсаба | Совместимость с бытовыми плеерами: Да
    Видео: XviD (8 bit) 720х408, ~994 kbps, 23.976 fps
    в составе контейнера:
    Аудио: MP3, 128 kbps, 44.1 kHz, 2 ch [Russian] Озвучка 1: [DUB] - Многоголосый, Дублированный [SDI Media]

    Список эпизодов

    01. От А до Z!
    02. Любовь нагрянула! Иви не рада!
    03. Гига-битва с мега-результатами!
    04. Огненный обряд перехода!
    05. Один сон на троих!
    06. Легенда героя ниндзя!
    07. Фестиваль решений!
    08. Танцевальный дебют!
    09. Встреча в пещере Терминус!
    10. Клеточное соединение!
    11. Познакомленные ветром!
    12. Бал-Демонстрация!
    13. Встреча двух путешествий!
    14. Взрывная операция!
    15. Водораздельный момент!
    16. Выбор перед мастер-классом!
    17. Электрическая ярость!
    18. Ключ к уважению!
    19. Мастер-класс начинается!
    20. Прокладывая дорогу в будущее!
    21. Опасайтесь своих желаний!
    22. Битва на полной громкости!
    23. Тест на синхронность!
    24. Новые друзья, старые злодеи!
    25. Битва-исследование с чемпионом!
    26. Совершенно необычная битва!
    27. Все на ледяное поле!
    28. Ответы в заснеженном лесу!
    29. Настоящий ледокол!
    30. Неогранённый алмаз!
    31. Гаджеты - вершина великолепия!
    32. Его лига!
    33. Ценный опыт для всех!
    34. Анализ против страсти!
    35. Крепкое соперничество!
    36. Страсть и пламя лиги Калос!
    37. Финал не для слабонервных!
    38. На пути к огненному финишу!
    39. Захват башни!
    40. Совершенно разные мечты!
    41. Подходящий герой для подходящей работы!
    42. Все на защиту Калос!
    43. Создание идеального союза!
    44. Битва с чистого листа!
    45. Первый день оставшейся жизни!
    46. Приходя на помощь многим!
    47. До новых состязаний!
    48. Легенда об X, Y и Z!

    Подробные тех. данные

    General
    Complete name : [FRT Sora] Pokemon XYZ [HWP]\[FRT Sora] Pokemon S19 E01 [HWP].avi
    Format : AVI
    Format/Info : Audio Video Interleave
    File size : 173 MiB
    Duration : 21mn 20s
    Overall bit rate : 1 132 Kbps
    Movie name : From A to Z!
    Genre : Anime, Dubbed
    Writing application : VirtualDubMod 1.5.10.3 | www.virtualdub-fr.org || (build 2550/release)
    Writing library : VirtualDubMod build 2550/release
    Copyright : В© 2016 PokГ©mon. 1997-2015 Nintendo, Creatures, GAME FREAK, TV Tokyo, ShoPro, JR Kikaku. TM,Nintendo.
    Video
    ID : 0
    Format : MPEG-4 Visual
    Format profile : Advanced Simple@L5
    Format settings, BVOP : 1
    Format settings, QPel : No
    Format settings, GMC : No warppoints
    Format settings, Matrix : Default (H.263)
    Codec ID : XVID
    Codec ID/Hint : XviD
    Duration : 21mn 20s
    Bit rate : 994 Kbps
    Width : 720 pixels
    Height : 408 pixels
    Display aspect ratio : 16:9
    Frame rate : 23.976 (24000/1001) fps
    Color space : YUV
    Chroma subsampling : 4:2:0
    Bit depth : 8 bits
    Scan type : Progressive
    Compression mode : Lossy
    Bits/(Pixel*Frame) : 0.141
    Stream size : 152 MiB (88%)
    Writing library : XviD 67
    Audio
    ID : 1
    Format : MPEG Audio
    Format version : Version 1
    Format profile : Layer 3
    Codec ID : 55
    Codec ID/Hint : MP3
    Duration : 21mn 20s
    Bit rate mode : Constant
    Bit rate : 128 Kbps
    Channel(s) : 2 channels
    Sampling rate : 44.1 KHz
    Compression mode : Lossy
    Stream size : 19.5 MiB (11%)
    Alignment : Split accross interleaves
    Interleave, duration : 42 ms (1.00 video frame)
    Interleave, preload duratio : 500 ms

    Скриншоты

    Отличия

    От этой - Совместимость с бытовыми плеерами
    От этой - Совместимость с бытовыми плеерами
    [www.cybertorrent.ru].t2753.torrent 
    Торрент: Зарегистрирован [ 2018-02-16 14:35 ] · 4112EE254791F9CA77EE80BBF53E2C53AB9EE3FB

    Скачать .torrent

    Скачать

    27 KB

    Статус: проверено
    Скачан: 0 раз
    Размер: 9,1 GB
  • Профиль [ЛС]
    Показать сообщения:    

    Текущее время: 22-Окт 05:56

    Часовой пояс: UTC ± 0



    Вы не можете начинать темы
    Вы не можете отвечать на сообщения
    Вы не можете редактировать свои сообщения
    Вы не можете удалять свои сообщения
    Вы не можете голосовать в опросах
    Вы не можете прикреплять файлы к сообщениям
    Вы можете скачивать файлы
    Torrents24.ru открытый BitTorrent Torrents24.pl открытый BitTorrent CyberTorrent.ru открытый BitTorrent BtList.ru рейтинг BitTorrent трекеров Яндекс.Метрика