Статистика раздачи
Размер:  39,19 GB   |    Зарегистрирован:  4 месяца 3 дня   |    Скачан:  0 раз

Полного источника не было: Никогда

 
   
 
 

firebird ®

Пол:
Не указан
Стаж:
4 месяца 4 дня
Сообщений:
37

Покемон: XYZ / Pokemon the Series: XYZ- Страна: Япония / США
Год выпуска: 2016 г.
Жанр: приключения, комедия, фэнтези
Тип: TV-сериал
Серии: 48 эпизодов по 21 минуте
Автор оригинала: Тадзири Сатоси
Режиссер оригинала: Юяма Кунихико
Студия: OLM-Релиз подготовлен группой Free Releasers Team "SORA"
  • Производство: SDI Media Russia
  • Захват звука: Vinozavr (телеканал "2х2")
  • Сведение звука: Ampho_dub
  • Роли озвучивали: Иван Калинин, Андрей Гриневич, Илья Хвостиков, Алёна Созинова, Анастасия Студилова, Антон Савенков, Антон Колесников, Мария Иващенко, Лариса Некипелова, Петр Иващенко, Дарья Фролова, Дмитрий Филимонов, Александр Дасевич, Ольга Зубкова, Екатерина Семёнова, Сергей Смирнов, Прохор Чеховской, Татьяна Шитова, Татьяна Веселкина, Ольга Кузьмина, Ольга Голованова-Описание: Кульминация приключений Эша и Пикачу в регионе Калос в "Покемон: Сериал: XYZ"! Остался всего один значок для прохождения в Лигу Калоса, и Эш не сдаваясь преследует свою мечту стать мастером покемонов. Мечта Серены также близка к исполнению, ведь скоро она будет соревноваться за корону Королевы Калоса. Бонни нашла себе нового друга и любимца в лице милого, но загадочного Сквиши, однако вскоре становится ясно, что силы зла не дремлют и могут разлучить их. Достигнет ли таинственная команда "Пламя" своих целей, или же наши герои смогут защитить Сквиши и весь Калос от их пылающих амбиций?-Качество: WEBRip | Формат: MKV | Энкод: iTunes
    Тип релиза: Без хардсаба | Совместимость с бытовыми плеерами: Нет
    Видео: x264 (8 bit), 1434x1072 (@1912x1072), ~5 109 kbps, 29.970 fps
    в составе контейнера:
    Аудио 1: AC3, 192 kbps, 48 kHz, 2 ch [Russian] Озвучка 1: [DUB] - Многоголосый, Дублированный [SDI Media]
    Аудио 2: AC3, 192 kbps, 48 kHz, 2 ch [English] Озвучка 2: [DUB] - Многоголосый, Дублированный [Оригинал]
    Субтитры: ASS, Встроенные, Полные | Надписи [Russian]
    Переводчик\Оформление: Battle Hammer | Редактор: Дверучка Че, sim_emrom

    Список эпизодов

    01. От А до Z!
    02. Любовь нагрянула! Иви не рада!
    03. Гига-битва с мега-результатами!
    04. Огненный обряд перехода!
    05. Один сон на троих!
    06. Легенда героя ниндзя!
    07. Фестиваль решений!
    08. Танцевальный дебют!
    09. Встреча в пещере Терминус!
    10. Клеточное соединение!
    11. Познакомленные ветром!
    12. Бал-Демонстрация!
    13. Встреча двух путешествий!
    14. Взрывная операция!
    15. Водораздельный момент!
    16. Выбор перед мастер-классом!
    17. Электрическая ярость!
    18. Ключ к уважению!
    19. Мастер-класс начинается!
    20. Прокладывая дорогу в будущее!
    21. Опасайтесь своих желаний!
    22. Битва на полной громкости!
    23. Тест на синхронность!
    24. Новые друзья, старые злодеи!
    25. Битва-исследование с чемпионом!
    26. Совершенно необычная битва!
    27. Все на ледяное поле!
    28. Ответы в заснеженном лесу!
    29. Настоящий ледокол!
    30. Неогранённый алмаз!
    31. Гаджеты - вершина великолепия!
    32. Его лига!
    33. Ценный опыт для всех!
    34. Анализ против страсти!
    35. Крепкое соперничество!
    36. Страсть и пламя лиги Калос!
    37. Финал не для слабонервных!
    38. На пути к огненному финишу!
    39. Захват башни!
    40. Совершенно разные мечты!
    41. Подходящий герой для подходящей работы!
    42. Все на защиту Калос!
    43. Создание идеального союза!
    44. Битва с чистого листа!
    45. Первый день оставшейся жизни!
    46. Приходя на помощь многим!
    47. До новых состязаний!
    48. Легенда об X, Y и Z!

    Подробные тех. данные

    General
    Unique ID : 197159936696728396424401245115762572756 (0x94539F622CA3F4689D7B2648C6037DD4)
    Complete name : [FRT Sora] Pokemon XYZ [1080p]\[FRT Sora] Pokemon S19 E01 [1080p-x264-AC3].mkv
    Format : Matroska
    Format version : Version 4 / Version 2
    File size : 842 MiB
    Duration : 21 min 20 s
    Overall bit rate : 5 514 kb/s
    Encoded date : UTC 2016-12-16 16:55:47
    Writing application : mkvmerge v9.6.0 ('Slave To Your Mind') 64bit
    Writing library : libebml v1.3.4 + libmatroska v1.4.5
    Attachments : calibri_2.ttf / calibrib_2.ttf / calibriz_2.ttf / HATTEN.TTF
    Video
    ID : 1
    Format : AVC
    Format/Info : Advanced Video Codec
    Format profile : High@L4
    Format settings : CABAC / 5 Ref Frames
    Format settings, CABAC : Yes
    Format settings, RefFrames : 5 frames
    Codec ID : V_MPEG4/ISO/AVC
    Duration : 21 min 20 s
    Bit rate : 5 109 kb/s
    Width : 1 434 pixels
    Height : 1 072 pixels
    Display aspect ratio : 16:9
    Frame rate mode : Constant
    Frame rate : 29.970 (30000/1001) FPS
    Color space : YUV
    Chroma subsampling : 4:2:0
    Bit depth : 8 bits
    Scan type : Progressive
    Bits/(Pixel*Frame) : 0.111
    Stream size : 780 MiB (93%)
    Language : English
    Default : Yes
    Forced : No
    Color range : Limited
    Color primaries : BT.709
    Transfer characteristics : BT.709
    Matrix coefficients : BT.709
    Audio #1
    ID : 2
    Format : AC-3
    Format/Info : Audio Coding 3
    Format settings, Endianness : Big
    Codec ID : A_AC3
    Duration : 21 min 20 s
    Bit rate mode : Constant
    Bit rate : 192 kb/s
    Channel(s) : 2 channels
    Channel positions : Front: L R
    Sampling rate : 48.0 kHz
    Frame rate : 31.250 FPS (1536 SPF)
    Bit depth : 16 bits
    Compression mode : Lossy
    Stream size : 29.3 MiB (3%)
    Language : Russian
    Service kind : Complete Main
    Default : Yes
    Forced : No
    Audio #2
    ID : 3
    Format : AC-3
    Format/Info : Audio Coding 3
    Format settings, Endianness : Big
    Codec ID : A_AC3
    Duration : 21 min 20 s
    Bit rate mode : Constant
    Bit rate : 192 kb/s
    Channel(s) : 2 channels
    Channel positions : Front: L R
    Sampling rate : 48.0 kHz
    Frame rate : 31.250 FPS (1536 SPF)
    Bit depth : 16 bits
    Compression mode : Lossy
    Stream size : 29.3 MiB (3%)
    Language : English
    Service kind : Complete Main
    Default : No
    Forced : No
    Text #1
    ID : 4
    Format : ASS
    Codec ID : S_TEXT/ASS
    Codec ID/Info : Advanced Sub Station Alpha
    Duration : 6 s 110 ms
    Bit rate : 209 b/s
    Count of elements : 2
    Compression mode : Lossless
    Stream size : 160 Bytes (0%)
    Title : Title
    Language : Russian
    Default : Yes
    Forced : No
    Text #2
    ID : 5
    Format : ASS
    Codec ID : S_TEXT/ASS
    Codec ID/Info : Advanced Sub Station Alpha
    Duration : 20 min 24 s
    Bit rate : 125 b/s
    Count of elements : 258
    Compression mode : Lossless
    Stream size : 18.8 KiB (0%)
    Title : Full
    Language : Russian
    Default : No
    Forced : No

    Скриншоты

    Отличия

    От этой - Наличие субтитров с оригинальной дорожкой, 1080p
    [www.cybertorrent.ru].t2752.torrent 
    Торрент: Зарегистрирован [ 2018-02-16 14:35 ] · 68096ADE69BE101E44962D5815A28FAAFC0B8AEC

    Скачать .torrent

    Скачать

    102 KB

    Статус: проверено
    Скачан: 0 раз
    Размер: 39,19 GB
  • Профиль [ЛС]
    Показать сообщения:    

    Текущее время: 20-Июн 00:12

    Часовой пояс: UTC ± 0



    Вы не можете начинать темы
    Вы не можете отвечать на сообщения
    Вы не можете редактировать свои сообщения
    Вы не можете удалять свои сообщения
    Вы не можете голосовать в опросах
    Вы не можете прикреплять файлы к сообщениям
    Вы можете скачивать файлы