Статистика раздачи
Размер:  572 MB   |    Зарегистрирован:  9 месяцев 25 дней   |    Скачан:  0 раз

Полного источника не было: Никогда

Личеров:  1  [  0 KB/s  ]  
 
   
 
 

deltacatsplus ®

Пол:
Не указан
Стаж:
9 месяцев 26 дней
Сообщений:
202

The Victoria's Secret Swim Special 2016- - Дата/Год выпуска: 10.03.2016
Страна: США | CBS
Жанр: Музыкальное Fashion-Шоу
Продолжительность: 0:42:36
Режиссер: Хэмиш Гамильтон-Описание: 9 марта CBS покажет второй ежегодный выпуск познавательной передачи The Victoria’s Secret Swim Special. Супермодели Бехати Принслу, Кэндис Свэйнпоул, Эльза Хоск, Жасмин Тукс, Жозефин Скривер и другие безумно красивые девушки соберутся на острове Сен-Бартелеми, чтобы фотографироваться в купальниках (в том числе и под водой). Также они будут рассказывать о своей жизни и карьере, петь, танцевать и участвовать в походах. Ожидаются выступления Деми Ловато и Ника Джонаса.-Автор рипа/записи: BATV
Сэмпл: sendfile-Качество: HDTVRip-AVC
Формат: MP4
Видео кодек: H264
Аудио кодек: AAC-

MediaInfo

General
Complete name : E:\uTorrent.Temp\Temp\The.Victorias.Secret.Swim.Special.2016.HDTV.x264-BATV.mp4
Format : MPEG-4
Format profile : Base Media
Codec ID : isom (isom)
File size : 572 MiB
Duration : 42mn 37s
Overall bit rate mode : Variable
Overall bit rate : 1 875 Kbps
Encoded date : UTC 2016-03-10 03:15:48
Tagged date : UTC 2016-03-10 03:15:48
Video
ID : 2
Format : AVC
Format/Info : Advanced Video Codec
Format profile : High@L3.1
Format settings, CABAC : Yes
Format settings, ReFrames : 5 frames
Codec ID : avc1
Codec ID/Info : Advanced Video Coding
Duration : 42mn 37s
Source duration : 42mn 37s
Bit rate : 1 719 Kbps
Maximum bit rate : 9 435 Kbps
Width : 720 pixels
Height : 404 pixels
Display aspect ratio : 16:9
Frame rate mode : Constant
Frame rate : 29.970 (30000/1001) fps
Color space : YUV
Chroma subsampling : 4:2:0
Bit depth : 8 bits
Scan type : Progressive
Bits/(Pixel*Frame) : 0.197
Stream size : 524 MiB (92%)
Source stream size : 524 MiB (92%)
Writing library : x264 core 148 r2665 a01e339
Encoding settings : cabac=1 / ref=5 / deblock=1:0:0 / analyse=0x3:0x113 / me=umh / subme=8 / psy=1 / psy_rd=1.00:0.00 / mixed_ref=1 / me_range=16 / chroma_me=1 / trellis=1 / 8x8dct=1 / cqm=0 / deadzone=21,11 / fast_pskip=1 / chroma_qp_offset=-2 / threads=13 / lookahead_threads=2 / sliced_threads=0 / nr=0 / decimate=1 / interlaced=0 / bluray_compat=0 / constrained_intra=0 / bframes=3 / b_pyramid=2 / b_adapt=2 / b_bias=0 / direct=3 / weightb=1 / open_gop=0 / weightp=2 / keyint=250 / keyint_min=25 / scenecut=40 / intra_refresh=0 / rc_lookahead=50 / rc=crf / mbtree=1 / crf=21.0 / qcomp=0.60 / qpmin=0 / qpmax=69 / qpstep=4 / ip_ratio=1.40 / aq=1:1.00
Encoded date : UTC 2016-03-10 02:49:50
Tagged date : UTC 2016-03-10 03:15:50
Color range : Limited
Matrix coefficients : BT.709
Audio
ID : 1
Format : AAC
Format/Info : Advanced Audio Codec
Format profile : LC
Codec ID : 40
Duration : 42mn 37s
Bit rate mode : Variable
Bit rate : 152 Kbps
Maximum bit rate : 180 Kbps
Channel(s) : 2 channels
Channel positions : Front: L R
Sampling rate : 48.0 KHz
Frame rate : 46.875 fps (1024 spf)
Compression mode : Lossy
Stream size : 46.3 MiB (8%)
Encoded date : UTC 2016-03-10 03:15:48
Tagged date : UTC 2016-03-10 03:15:50

Технические характеристики и скриншоты

Видео: 720x404 (16:9), 29,970 fps, H264, ~1700 kbps avg, ~0.197 bit/pixel
Аудио: 48 kHz, AAC, 2/0 (L,R) ch, ~138.00 kbps avg
Перевод: Отсутствует
Русские субтитры: Нет
Оригинальная аудиодорожка: Английская-
[www.cybertorrent.ru].t2722.torrent 
Торрент: Зарегистрирован [ 2018-02-16 14:35 ] · E5F942027830D6C9AAD9F2D1F3DA703F7018E939

Скачать .torrent

Скачать

12 KB

Статус: проверено
Скачан: 0 раз
Размер: 572 MB
Профиль [ЛС]
Показать сообщения:    

Текущее время: 13-Дек 21:06

Часовой пояс: UTC ± 0



Вы не можете начинать темы
Вы не можете отвечать на сообщения
Вы не можете редактировать свои сообщения
Вы не можете удалять свои сообщения
Вы не можете голосовать в опросах
Вы не можете прикреплять файлы к сообщениям
Вы можете скачивать файлы
Torrents24.ru открытый BitTorrent Torrents24.pl открытый BitTorrent CyberTorrent.ru открытый BitTorrent BtList.ru рейтинг BitTorrent трекеров Яндекс.Метрика