Статистика раздачи
Размер:  22,75 GB   |    Зарегистрирован:  8 месяцев 3 дня   |    Скачан:  0 раз

Полного источника не было: Никогда

Личеров:  1  [  0 KB/s  ]  
 
   
 
 

antikvar ®

Пол:
Не указан
Стаж:
8 месяцев 4 дня
Сообщений:
50

Совершенный Человек-паук против Зловещей Шестерки / Ultimate Spider-Man vs Sinister Six
Страна: США
Жанр: Приключения, экранизация комиксов, комедия
Продолжительность: 00:22:03
Год выпуска: 2016
Перевод: Любительский (многоголосый закадровый) (BZEKE)
Русские субтитры: Yellow Tree
Режиссёр: Тим Элдред, Алекс Сото / Tim Eldred, Alex Soto
Роли озвучивали: Дрэйк Белл, Стивен Уэбер, Дж.К. Симмонс, Чи МакБрайд, Оги Бэнкс, Логан Миллер, Кейтлин Тейлор Лав, Грег Сайпс, Кларк Грегг, Мисти Ли, Мэтт Лантер, Том Кенни, Тара Стронг, Стэн Ли, Клэнси Браун
Описание: Новый мультсериал о Человеке-пауке, являющийся переделкой основной серии мультфильмов. Теперь главный герой Питер Паркер превратился из наивного и отчаянного подростка в настоящего героя, который примирился со своим происхождением и способностями. Новые серии покажут уникальное путешествие, в процессе которого мы увидим, как наш любимый стенолаз объединяется с другими супергероями Марвел в никогда ранее не виденных сюжетах о новой жизни, полной сложных задач и новых друзей.
Качество: WEB-DL 1080p
Формат: MKV
Видео: MPEG4 Video (H264) 1920x1080 23.976 fps ~5700 Kbps
Аудио 1: Русский, АС3, 2ch 192 kbps, 48kHz
Аудио 2: Английский, AC3 Dolby Digital, 6 ch, 384 kbps, 48 kHz
Субтитры: русские, английские
Сэмпл
Все раздачи мультсериала
В 14ой серии текст русской дорожки и текст субтитров различается из-за некоторых разногласий между коллективами. Надеемся, такого больше не произойдет

Список серий

1 Атака Гидры. Часть 1
2 Атака Гидры. Часть 2
3 Вдали от родного дома
4 Железный стервятник
5 Ящеры
6 Двойной агент Веном
7 На пляже
8 Анти-Веном
9 Сила природы
10 Новая Зловещая Шестерка. Часть 1
11 Новая Зловещая Шестерка. Часть 2
12 Агент Паутина
13 Сага о симбиотах. Часть 1
14 Сага о симбиотах. Часть 2
15 Сага о симбиотах. Часть 3
16 Возвращение в Паучий мир. Часть 1
17 Возвращение в Паучий мир. Часть 2
18 Возвращение в Паучий мир. Часть 3
19 Возвращение в Паучий мир. Часть 4
20 Очень странный Хэллоуин
21 Пауки-убийцы. Часть 1
22 Пауки-убийцы. Часть 2
23 Пауки-убийцы. Часть 3
24 Лунный рыцарь - похититель рождества
25 Выпускной. Часть 1
26 Выпускной. Часть 2

Скриншоты

Подробные технические данные

Общее
Уникальный идентификатор : 187309194099768431000070967170936531454 (0x8CEA70469EC4686CA7CC701D1DC2E9FE)
Полное имя : C:\Users\Алексей\Downloads\USM s04 rus\Совершенный Человек-паук против Зловещей шестерки 4х01 Атака Гидры Часть Первая.mkv
Формат : Matroska
Версия формата : Version 4 / Version 2
Размер файла : 911 Мбайт
Продолжительность : 22 м.
Общий поток : 5773 Кбит/сек
Дата кодирования : UTC 2016-04-19 20:00:13
Программа кодирования : mkvmerge v9.0.1 ('Obstacles') 64bit
Библиотека кодирования : libebml v1.3.3 + libmatroska v1.4.4
DURATION : 00:22:03.584000000
NUMBER_OF_FRAMES : 41362
NUMBER_OF_BYTES : 31766016
_STATISTICS_WRITING_APP : mkvmerge v9.0.1 ('Obstacles') 64bit
_STATISTICS_WRITING_DATE_UTC : 2016-04-19 20:00:13
_STATISTICS_TAGS : BPS DURATION NUMBER_OF_FRAMES NUMBER_OF_BYTES
Видео
Идентификатор : 1
Формат : AVC
Формат/Информация : Advanced Video Codec
Профиль формата : High@L4
Параметр CABAC формата : Да
Параметр ReFrames формата : 4 кадра
Идентификатор кодека : V_MPEG4/ISO/AVC
Продолжительность : 22 м.
Битрейт : 5082 Кбит/сек
Ширина : 1920 пикселей
Высота : 1080 пикселей
Соотношение сторон : 16:9
Режим частоты кадров : Постоянный
Частота кадров : 23,976 кадра/сек
Цветовое пространство : YUV
Субдискретизация насыщенности : 4:2:0
Битовая глубина : 8 бит
Тип развёртки : Прогрессивная
Бит/(Пиксели*Кадры) : 0.102
Размер потока : 802 Мбайт (88%)
Заголовок : H.264
Default : Да
Forced : Нет
Цветовой диапазон : Limited
Основные цвета : BT.709
Характеристики трансфера : BT.709
Коэффициенты матрицы : BT.709
Аудио #1
Идентификатор : 2
Формат : AC-3
Формат/Информация : Audio Coding 3
Расширение режима : CM (complete main)
Параметр Endianness формата : Big
Идентификатор кодека : A_AC3
Продолжительность : 22 м.
Вид битрейта : Постоянный
Битрейт : 192 Кбит/сек
Каналы : 2 канала
Расположение каналов : Front: L R
Частота : 48,0 КГц
Метод сжатия : С потерями
Размер потока : 30,3 Мбайт (3%)
Язык : Russian
Default : Нет
Forced : Нет
Аудио #2
Идентификатор : 3
Формат : AC-3
Формат/Информация : Audio Coding 3
Расширение режима : CM (complete main)
Параметр Endianness формата : Big
Идентификатор кодека : A_AC3
Продолжительность : 22 м.
Вид битрейта : Постоянный
Битрейт : 384 Кбит/сек
Каналы : 6 каналов
Расположение каналов : Front: L C R, Side: L R, LFE
Частота : 48,0 КГц
Метод сжатия : С потерями
Размер потока : 60,6 Мбайт (7%)
Заголовок : DD5.1
Язык : English
Default : Нет
Forced : Нет
Текст #1
Идентификатор : 4
Формат : UTF-8
Идентификатор кодека : S_TEXT/UTF8
Идентификатор кодека/Информация : UTF-8 Plain Text
Заголовок : CC
Язык : English
Default : Нет
Forced : Нет
Текст #2
Идентификатор : 5
Формат : UTF-8
Идентификатор кодека : S_TEXT/UTF8
Идентификатор кодека/Информация : UTF-8 Plain Text
Язык : Russian
Default : Да
Forced : Нет

Внимание! Раздача ведётся путём добавления новых серий

Внимание! Раздача ведётся путём добавления новых серий; при каждом добавлении создаётся новый торрент. Чтобы начать докачку новой серии, пользователям необходимо сделать следующее:
(1) остановить скачивание,
(2) удалить старый торрент у себя из клиента (старые серии удалять не надо),
(3) скачать новый торрент и запустить его у себя в клиенте вместо старого, при этом указать клиенту путь в старую папку куда и должно происходить скачивание новых серий.
Ваш клиент при этом должен произвести хеширование (проверку) старой папки (если не производит сам - помогите ему сделать это), и будет докачивать только те серии которых у вас ещё нет. Старые серии при этом не удаляются, а продолжают раздаваться!
Eсли вы уже удалили старые серии, то предотвратить повторную закачку старых серий можно, отжав галочку в соответствующих местах при запуске нового торрента. По возможности, желательно не удалять старые серии как можно дольше чтобы релизёр не столько продолжал раздавать старые серии, а смог сконцентрироваться на новых.
Если у кого-нибудь есть какие-либо предложения или замечания, если кто-то заметил ошибку/неточность в переводе или оформлении - не стесняйтесь высказываться, мы открыты для обоснованной критики
[www.cybertorrent.ru].t2596.torrent 
Торрент: Зарегистрирован [ 2018-02-16 14:23 ] · 7AB2BCE8EB6F4E82F8577460B5E01C963EB155EA

Скачать .torrent

Скачать

62 KB

Статус: проверено
Скачан: 0 раз
Размер: 22,75 GB
Профиль [ЛС]
Показать сообщения:    

Текущее время: 20-Окт 06:50

Часовой пояс: UTC ± 0



Вы не можете начинать темы
Вы не можете отвечать на сообщения
Вы не можете редактировать свои сообщения
Вы не можете удалять свои сообщения
Вы не можете голосовать в опросах
Вы не можете прикреплять файлы к сообщениям
Вы можете скачивать файлы
Torrents24.ru открытый BitTorrent Torrents24.pl открытый BitTorrent CyberTorrent.ru открытый BitTorrent BtList.ru рейтинг BitTorrent трекеров Яндекс.Метрика