Статистика раздачи
Размер:  3,89 GB   |    Зарегистрирован:  6 месяцев 4 дня   |    Скачан:  0 раз

Полного источника не было: Никогда

 
   
 
 

firebird ®

Пол:
Не указан
Стаж:
6 месяцев 6 дней
Сообщений:
323

-Покемон: Фильм 8 - Лукарио и Тайна Мью
Pokemon: The Movie 8 - Lucario and the Mystery of Mew
[FHD 1080p][HD 720p]-Pokemon the Movie [FHD 1080p]:|1| |2| |3| |4| |5| |6| |7| |8| |9| |10| |11| |12| |13| |14b и 14w| |15| |16| |17| |18| |19| |20|- Страна: Япония / США
Год выпуска: 16 июля 2005 года
Жанр: детский, комедия, приключения, фэнтези.
Тип: Movie
Продолжительность: 100 мин
Режиссер: Кунихико Юяма
Студия: OLM-Описание:
Говорят, что сотни лет назад Страж Ауры – Аарон – использовал силу Древа Начала, чтобы остановить великую битву. Теперь во дворце Камарон собираются жители города на фестиваль в честь этого героя. И Эш с друзьями пришли как раз вовремя! Эш и Пикачу принимают участие в турнире и побеждают! В этом году Эш становится почётным Хранителем Ауры. Но, когда Эш и Пикачу начинают отмечать победу, появляется Легендарный Покемон психического типа Мью и уводит Пикачу! И это только начало. Ведь пробуждается Покемон Стража Ауры Лукарио и отправляет Эша на поиски Древа Начала.(c)pokemon.com-Информация о релизе:
BDRip, сведение звука: LightEssence
Дубляж:
SDI Media (WEBRip: pokemon.com)
Многоголосая озвучка и Субтитры:
TeamGliger (Ричард2323, sim_emrom, Recart, Pika-Pika; перевод: Recart, Andron1818)-Качество: BDRip | Тип релиза: Без хардсаба | Формат видео: MKV
Релиз/Автор рипа: LightEssence
Совместимость с бытовыми плеерами: Нет-Обновление от 09.07.2017
Видео: x264(8bit), 1920х1080, 5018 kbps, 23.976 fps(NTSC)
в составе контейнера:
Аудио 1: AC3, 192kbps, 48kHz, 2ch - Русский; Озвучка 1: [DUB] - Многоголосый, Дублированный [SDI Media]
Аудио 2: AC3, 192kbps, 48kHz, 2ch - Русский; Озвучка 2: [MVO] - Многоголосый, Закадровый [TeamGliger: Ричард2323, sim_emrom, Recart, Pika-Pika]
Аудио 3: AC3, 192kbps, 48kHz, 2ch - Английский; Озвучка 3: [DUB] - Многоголосый, Дублированный [Оригинал]
Субтитры 1: SRT, Русский - TeamGliger [перевод: Recart, Andron1818]
Субтитры 2: SRT, Английский - iTunes [SubRip by LightEssence]-

Скриншоты

Подробные тех. данные

Код:General
Unique ID : 209595287540364561752558356833090985234 (0x9DAE9584257ABA3897E23D3374ACDD12)
Complete name : F:\Покемон\Pokemon the Movie [1080p]\08.Pokemon the Movie 8 - Lucario and the mystery of Mew [BDRip-1080p][LightEssence].mkv
Format : Matroska
Format version : Version 4 / Version 2
File size : 3.89 GiB
Duration : 1 h 39 min
Overall bit rate : 5 597 kb/s
Encoded date : UTC 2016-09-01 19:24:02
Writing application : mkvmerge v9.0.1 ('Obstacles') 64bit
Writing library : libebml v1.3.3 + libmatroska v1.4.4
Video
ID : 1
Format : AVC
Format/Info : Advanced Video Codec
Format profile : High@L5
Format settings, CABAC : Yes
Format settings, ReFrames : 6 frames
Codec ID : V_MPEG4/ISO/AVC
Duration : 1 h 39 min
Bit rate : 5 018 kb/s
Nominal bit rate : 6 000 kb/s
Width : 1 920 pixels
Height : 1 080 pixels
Display aspect ratio : 16:9
Frame rate mode : Constant
Frame rate : 23.976 (24000/1001) FPS
Color space : YUV
Chroma subsampling : 4:2:0
Bit depth : 8 bits
Scan type : Progressive
Bits/(Pixel*Frame) : 0.101
Stream size : 3.49 GiB (90%)
Title : Pokemon the Movie 8 - Lucario and the mystery of Mew - 2005 BDRip - [LightEssence][1080p]
Writing library : x264 core 148 r2705M 3f5ed56
Encoding settings : cabac=1 / ref=6 / deblock=1:-3:-3 / analyse=0x3:0x133 / me=tesa / subme=11 / psy=1 / psy_rd=1.05:0.10 / mixed_ref=1 / me_range=16 / chroma_me=1 / trellis=2 / 8x8dct=1 / cqm=0 / deadzone=21,11 / fast_pskip=0 / chroma_qp_offset=-3 / threads=9 / lookahead_threads=1 / sliced_threads=0 / nr=0 / decimate=1 / interlaced=0 / bluray_compat=0 / constrained_intra=0 / bframes=6 / b_pyramid=2 / b_adapt=2 / b_bias=0 / direct=3 / weightb=1 / open_gop=0 / weightp=2 / keyint=230 / keyint_min=23 / scenecut=40 / intra_refresh=0 / rc_lookahead=40 / rc=cbr / mbtree=1 / bitrate=6000 / ratetol=1.0 / qcomp=0.70 / qpmin=3 / qpmax=69 / qpstep=4 / vbv_maxrate=6000 / vbv_bufsize=6000 / nal_hrd=none / filler=0 / ip_ratio=1.40 / aq=2:1.00
Language : English
Default : Yes
Forced : No
Color range : Limited
Color primaries : BT.709
Transfer characteristics : BT.709
Matrix coefficients : BT.709
Audio #1
ID : 2
Format : AC-3
Format/Info : Audio Coding 3
Mode extension : CM (complete main)
Format settings, Endianness : Big
Codec ID : A_AC3
Duration : 1 h 39 min
Bit rate mode : Constant
Bit rate : 192 kb/s
Channel(s) : 2 channels
Channel positions : Front: L R
Sampling rate : 48.0 kHz
Frame rate : 31.250 FPS (1536 spf)
Compression mode : Lossy
Stream size : 137 MiB (3%)
Title : RUS [DUB] - (многоголосый, дублированный) [SDI Media]
Language : Russian
Default : Yes
Forced : No
Audio #2
ID : 3
Format : AC-3
Format/Info : Audio Coding 3
Mode extension : CM (complete main)
Format settings, Endianness : Big
Codec ID : A_AC3
Duration : 1 h 39 min
Bit rate mode : Constant
Bit rate : 192 kb/s
Channel(s) : 2 channels
Channel positions : Front: L R
Sampling rate : 48.0 kHz
Frame rate : 31.250 FPS (1536 spf)
Compression mode : Lossy
Stream size : 137 MiB (3%)
Title : RUS [MVO] - (многоголосый, закадровый) [TeamGliger - Ричард2323, sim_emrom, Recart, Pika-Pika]
Language : Russian
Default : No
Forced : No
Audio #3
ID : 4
Format : AC-3
Format/Info : Audio Coding 3
Mode extension : CM (complete main)
Format settings, Endianness : Big
Codec ID : A_AC3
Duration : 1 h 39 min
Bit rate mode : Constant
Bit rate : 192 kb/s
Channel(s) : 2 channels
Channel positions : Front: L R
Sampling rate : 48.0 kHz
Frame rate : 31.250 FPS (1536 spf)
Compression mode : Lossy
Stream size : 137 MiB (3%)
Title : ENG [DUB]
Language : English
Default : No
Forced : No
Text #1
ID : 5
Format : UTF-8
Codec ID : S_TEXT/UTF8
Codec ID/Info : UTF-8 Plain Text
Duration : 1 h 34 min
Bit rate : 61 b/s
Count of elements : 952
Stream size : 42.4 KiB (0%)
Title : RUS [SUB] - TeamGliger [Перевод: Recart, Andron1818]
Language : Russian
Default : No
Forced : No
Text #2
ID : 6
Format : UTF-8
Codec ID : S_TEXT/UTF8
Codec ID/Info : UTF-8 Plain Text
Duration : 1 h 39 min
Bit rate : 57 b/s
Count of elements : 1764
Stream size : 41.6 KiB (0%)
Title : ENG [SUB] - iTunes [SubRip by LightEssence]
Language : English
Default : No
Forced : No

Отличия

DVDRip [Andron1818] - BDRip, 1080p
DVDRip [Recart] - BDRip, 1080p
DVDRip [Slink] - BDRip, 1080p
DVDRip [Slink] - BDRip, 1080p
BDRip 720p [LightEssence] - 1080p
-Внимание!!!
Если торрент не видит анонсеры рутрекера и не видит сидов (раздача выделена красным цветом в uTorrent) рекомендую воспользоваться этой или другими инструкциями по обходу блокировки
[www.cybertorrent.ru].t2583.torrent 
Торрент: Зарегистрирован [ 2018-02-16 14:23 ] · 17C716D001FC4F9F0E7B08F8260409229501527E

Скачать .torrent

Скачать

20 KB

Статус: проверено
Скачан: 0 раз
Размер: 3,89 GB
Профиль [ЛС]
Показать сообщения:    

Текущее время: 21-Авг 13:25

Часовой пояс: UTC ± 0



Вы не можете начинать темы
Вы не можете отвечать на сообщения
Вы не можете редактировать свои сообщения
Вы не можете удалять свои сообщения
Вы не можете голосовать в опросах
Вы не можете прикреплять файлы к сообщениям
Вы можете скачивать файлы
Torrents24.ru открытый BitTorrent Torrents24.pl открытый BitTorrent CyberTorrent.ru открытый BitTorrent BtList.ru рейтинг BitTorrent трекеров Яндекс.Метрика