Статистика раздачи
Размер:  1,46 GB   |    Зарегистрирован:  6 месяцев 3 дня   |    Скачан:  0 раз

Полного источника не было: Никогда

 
   
 
 

nic ®

Пол:
Не указан
Стаж:
6 месяцев 5 дней
Сообщений:
60

Необыкновенное путешествие Серафимы
Страна: Россия
Жанр: Приключения
Продолжительность: 01:14:57
Год выпуска: 2015
Перевод: Не требуется
Русские субтитры: нет
Режиссёр: Сергей Антонов
Роли озвучивали: Александр Михайлов, Алина Михайлова, Виктория Дробина, Вера Васильева, Анастасия Бартяева, Владимир Левашёв, Наталья Грачёва, Анна Волкова, Анна Мещан, Елена Кищик
Описание: Сима Воскресенская, лишившаяся родителей в самом начале войны, живет в детском доме и втайне хранит нашейный крест, напоминающий ей о любимой семье. Однажды Сима знакомится с Ритой — девочкой, которая открывает ей, что дом полон секретов и призраков, и предлагает ей отправиться в загадочную каморку под лестницей, чтобы посмотреть на одного из них. Кто бы мог подумать, что приглашение поможет Серафиме раскрыть тайну детского дома и пролить свет на судьбу родителей.
Доп. информация: МУЛЬТИК РЕЛИГИОЗНЫЙ.
Семпл: https://www.sendspace.com/file/tiwoot
Качество: WEB-DLRip
Формат: AVI
Видео: XVID; 2394 Кбит/сек; 720х400 (16:9); 24,000 кадра/сек
Аудио: AC-3; 384 Кбит/сек; 6 каналов; 48,0 КГц
Субтитры: Нет

Подробные технические данные

бщее
Полное имя : E:\закачки\Серафима [rutracker.org].avi
Формат : AVI
Формат/Информация : Audio Video Interleave
Размер файла : 1,46 Гбайт
Продолжительность : 1 ч. 14 м.
Общий поток : 2787 Кбит/сек
Программа кодирования : VirtualDubMod 1.5.10.2 (build 2540/release)
Библиотека кодирования : VirtualDubMod build 2540/release
Видео
Идентификатор : 0
Формат : MPEG-4 Visual
Профиль формата : Advanced Simple@L5
Параметр BVOP формата : 1
Параметр QPel формата : Нет
Параметр GMC формата : Без точки перехода
Параметр матрицы формата : Default (H.263)
Идентификатор кодека : XVID
Идентификатор кодека/Подсказка : XviD
Продолжительность : 1 ч. 14 м.
Битрейт : 2394 Кбит/сек
Ширина : 720 пикселей
Высота : 400 пикселей
Соотношение сторон : 16:9
Частота кадров : 24,000 кадра/сек
Цветовое пространство : YUV
Субдискретизация насыщенности : 4:2:0
Битовая глубина : 8 бит
Тип развёртки : Прогрессивная
Метод сжатия : С потерями
Бит/(Пиксели*Кадры) : 0.346
Размер потока : 1,25 Гбайт (86%)
Библиотека кодирования : XviD 1.2.1 (UTC 2008-12-04)
Аудио
Идентификатор : 1
Формат : AC-3
Формат/Информация : Audio Coding 3
Расширение режима : CM (complete main)
Параметр Endianness формата : Big
Идентификатор кодека : 2000
Продолжительность : 1 ч. 14 м.
Вид битрейта : Постоянный
Битрейт : 384 Кбит/сек
Каналы : 6 каналов
Расположение каналов : Front: L C R, Side: L R, LFE
Частота : 48,0 КГц
Битовая глубина : 16 бит
Метод сжатия : С потерями
Размер потока : 206 Мбайт (14%)
Выравнивание : Соединение по промежуткам
Продолжительность промежутка : 42 мс. (1,00 видеокадр)
Время предзагрузки промежутка : 512 мс.

Скриншоты

[www.cybertorrent.ru].t2580.torrent 
Торрент: Зарегистрирован [ 2018-02-16 14:23 ] · 7C4D303FE69D956DD92077DB5CBD002AB5A8CFCA

Скачать .torrent

Скачать

15 KB

Статус: проверено
Скачан: 0 раз
Размер: 1,46 GB
Профиль [ЛС]
Показать сообщения:    

Текущее время: 20-Авг 12:17

Часовой пояс: UTC ± 0



Вы не можете начинать темы
Вы не можете отвечать на сообщения
Вы не можете редактировать свои сообщения
Вы не можете удалять свои сообщения
Вы не можете голосовать в опросах
Вы не можете прикреплять файлы к сообщениям
Вы можете скачивать файлы
Torrents24.ru открытый BitTorrent Torrents24.pl открытый BitTorrent CyberTorrent.ru открытый BitTorrent BtList.ru рейтинг BitTorrent трекеров Яндекс.Метрика