Статистика раздачи
Размер:  743 MB   |    Зарегистрирован:  9 месяцев 24 дня   |    Скачан:  0 раз

Полного источника не было: Никогда

 
   
 
 

nic ®

Пол:
Не указан
Стаж:
9 месяцев 25 дней
Сообщений:
60

Крепость: щитом и мечом
Страна: Россия
Жанр: Мультипликация, военная сказка, приключения
Продолжительность: 01:16:43
Год выпуска: 2015
Субтитры: отсутствуют
Режиссёр: Фёдор Дмитриев
Роли озвучивали: Пётр Фёдоров, Евгений Стычкин, Елена Шульман, Екатерина Гороховская, Вадим Никитин, Олег Куликович, Сергей Русскин, Михаил Хрусталёв, Анатолий Петров, и др.
Описание: 1609 год. Идёт война. Польско-Литовские войска взяли в осаду Смоленск, но Русский гарнизон во главе с воеводой Михаилом Шеиным готов держать оборону до конца. Смоленск - главная крепость на пути захватчиков к Москве, и его нельзя сдавать без боя. Об этом знают даже дети. Мальчик Сашка лепит самодельные бомбы из теста и колдует в защиту города - вызывает на помощь царя с огненным щитом и пламенным копьём. Пока волшебный царь не пришёл, Сашка и его друг Фёдор просятся в помощники к воеводе. Им предстоит разрушить коварные планы Польского короля Сигизмунда третьего и справиться с нечистой силой, что по ночам бродит по осаждённой крепости...

Качество: HDRip
Формат: AVI
Видео: XviD 73 MPEG-4, 720x304 (2.35:1) 24.000 fps, ~1214 kbps avg, 0.231 bit/pixel
Аудио: MP-3 Joint stereo, CBR 128 kbps 2 ch, 48.0 KHz

MediaInfo

Общее
Полное имя : V:\Крепость_щитом_и_мечом_2015_HDRip_[rutracker.org].avi
Формат : AVI
Формат/Информация : Audio Video Interleave
Размер файла : 743 Мбайт
Продолжительность : 1 ч. 16 м.
Общий поток : 1351 Кбит/сек
Программа кодирования : VirtualDubModRus 1.5.10.2 (build 2542/release)
Библиотека кодирования : VirtualDubMod build 2542/release
Видео
Идентификатор : 0
Формат : MPEG-4 Visual
Профиль формата : Advanced Simple@L5
Параметр BVOP формата : 2
Параметр QPel формата : Нет
Параметр GMC формата : Без точки перехода
Параметр матрицы формата : Default (MPEG)
Идентификатор кодека : DX50
Идентификатор кодека/Подсказка : DivX 5
Продолжительность : 1 ч. 16 м.
Битрейт : 1214 Кбит/сек
Ширина : 720 пикселей
Высота : 304 пикселя
Соотношение сторон : 2,35:1
Частота кадров : 24,000 кадра/сек
Цветовое пространство : YUV
Субдискретизация насыщенности : 4:2:0
Битовая глубина : 8 бит
Тип развёртки : Прогрессивная
Метод сжатия : С потерями
Бит/(Пиксели*Кадры) : 0.231
Размер потока : 668 Мбайт (90%)
Библиотека кодирования : XviD 73
Аудио
Идентификатор : 1
Формат : MPEG Audio
Версия формата : Version 1
Профиль формата : Layer 3
Режим : Joint stereo
Расширение режима : MS Stereo
Идентификатор кодека : 55
Идентификатор кодека/Подсказка : MP3
Продолжительность : 1 ч. 16 м.
Вид битрейта : Постоянный
Битрейт : 128 Кбит/сек
Каналы : 2 канала
Частота : 48,0 КГц
Метод сжатия : С потерями
Размер потока : 70,4 Мбайт (9%)
Выравнивание : Соединение по промежуткам
Продолжительность промежутка : 42 мс. (1,00 видеокадр)
Время предзагрузки промежутка : 504 мс.
Библиотека кодирования : LAME3.99r
Настройки программы : -m j -V 4 -q 2 -lowpass 17 -b 128

Скриншоты


Время раздачи - по возможности.
[www.cybertorrent.ru].t2552.torrent 
Торрент: Зарегистрирован [ 2018-02-16 14:23 ] · 0DE816DFCBA3DDDB4CBE57E36C0EA2AC65281428

Скачать .torrent

Скачать

15 KB

Статус: проверено
Скачан: 0 раз
Размер: 743 MB
Профиль [ЛС]
Показать сообщения:    

Текущее время: 13-Дек 00:08

Часовой пояс: UTC ± 0



Вы не можете начинать темы
Вы не можете отвечать на сообщения
Вы не можете редактировать свои сообщения
Вы не можете удалять свои сообщения
Вы не можете голосовать в опросах
Вы не можете прикреплять файлы к сообщениям
Вы можете скачивать файлы
Torrents24.ru открытый BitTorrent Torrents24.pl открытый BitTorrent CyberTorrent.ru открытый BitTorrent BtList.ru рейтинг BitTorrent трекеров Яндекс.Метрика