Статистика раздачи
Размер:  2,33 GB   |    Зарегистрирован:  4 месяца 4 дня   |    Скачан:  0 раз

Полного источника не было: Никогда

Личеров:  1  [  0 KB/s  ]  
 
   
 
 

Volga ®

Пол:
Не указан
Стаж:
4 месяца 5 дней
Сообщений:
92

21 Международный фестиваль циркового искусства в Масси / 21e Festival international du Cirque de Massy
Дата/Год выпуска: 2013
Страна: Франция
Жанр: цирк
Продолжительность: 01:28:38
Перевод: Не требуется
Русские субтитры: нет
Оригинальная аудиодорожка: французский
Телеканал: Gulli HD
Описание: 21 Международный фестиваль циркового искусства в Масси.
Вы увидите:
01. Flying Cortes
02. Troupe Florea
03. Famille Cassely
04. Nadya Vasina
05. Vincent Vignaud
06. Cassely et Berdino
07. Andrejs Fjodorovs
08. Housch-Ma-Housch
09. Diana Pukhova
10. Guillaume Junkar
11. Sacha Guidi et Iana
12. Duo Air
13. Famille Saaber
14. Duo Aphrodite
15. Marilou et Rene Cassely
качество: HDTVRip
формат: MKV
Видео: H.264, 1440x1080 (16:9), 25.000 fps, 3489 Kbps
Чаптеры: есть
Аудио: AC3, 2.0 ch, 48000 Hz, 192 Kbps

MediaInfo

General
Unique ID : 191233429616965134546870444616195922666 (0x8FDE380656A98646AC845A67310A5AEA)
Complete name : E:\21e Festival international du Cirque de Massy.mkv
Format : Matroska
Format version : Version 4 / Version 2
File size : 2.33 GiB
Duration : 1h 28mn
Overall bit rate : 3 755 Kbps
Encoded date : UTC 2016-01-20 11:15:19
Writing application : TMPGEnc MPEG Smart Renderer 4 Version 4.2.4.68
Writing library : TMPGEnc MPEG Smart Renderer 4 Version 4.2.4.68
Video
ID : 1
Format : AVC
Format/Info : Advanced Video Codec
Format profile : High@L4
Format settings, CABAC : Yes
Format settings, ReFrames : 4 frames
Format settings, GOP : M=8, N=24
Codec ID : V_MPEG4/ISO/AVC
Duration : 1h 28mn
Bit rate : 3 489 Kbps
Width : 1 440 pixels
Height : 1 080 pixels
Display aspect ratio : 16:9
Frame rate mode : Constant
Frame rate : 25.000 fps
Standard : Component
Color space : YUV
Chroma subsampling : 4:2:0
Bit depth : 8 bits
Scan type : MBAFF
Scan order : Top Field First
Bits/(Pixel*Frame) : 0.090
Stream size : 2.16 GiB (93%)
Default : Yes
Forced : No
Color range : Limited
Color primaries : BT.709
Transfer characteristics : BT.709
Matrix coefficients : BT.709
Audio
ID : 2
Format : AC-3
Format/Info : Audio Coding 3
Mode extension : CM (complete main)
Format settings, Endianness : Big
Codec ID : A_AC3
Duration : 1h 28mn
Bit rate mode : Constant
Bit rate : 192 Kbps
Channel(s) : 2 channels
Channel positions : Front: L R
Sampling rate : 48.0 KHz
Compression mode : Lossy
Stream size : 122 MiB (5%)
Language : French
Default : Yes
Forced : No
Menu

Скриншоты


За предоставленый исходник благодарим Papa Carlo
[www.cybertorrent.ru].t2547.torrent 
Торрент: Зарегистрирован [ 2018-02-16 14:23 ] · 500B5C9DD988E6A10B595B380B070E51A998195F

Скачать .torrent

Скачать

12 KB

Статус: проверено
Скачан: 0 раз
Размер: 2,33 GB
Профиль [ЛС]
Показать сообщения:    

Текущее время: 21-Июн 08:10

Часовой пояс: UTC ± 0



Вы не можете начинать темы
Вы не можете отвечать на сообщения
Вы не можете редактировать свои сообщения
Вы не можете удалять свои сообщения
Вы не можете голосовать в опросах
Вы не можете прикреплять файлы к сообщениям
Вы можете скачивать файлы