Статистика раздачи
Размер:  4,09 GB   |    Зарегистрирован:  8 месяцев 4 дня   |    Скачан:  0 раз

Полного источника не было: Никогда

 
   
 
 

Cyber ®

Пол:
Не указан
Стаж:
8 месяцев 5 дней
Сообщений:
291

Три богатыря. Ход конём
Страна: Россия
Жанр: Мультипликация, сказка, приключения
Продолжительность: 01:11:43
Год выпуска: 2014
Субтитры: отсутствуют
Режиссёр: Константин Феоктистов
Роли озвучивали: Сергей Маковецкий, Дмитрий Высоцкий, Дмитрий Нагиев, Олег Куликович, Валерий Соловьёв, Дмитрий Быковский-Ромашов, Гоша Куценко, Наргиз Закирова, Анатолий Петров, Лия Медведева, и др.
Описание: Придворный конь Гай Юлий Цезарь на свою беду подслушивает разговор бояр и узнаёт о заговоре против князя. Что же делать? Защитить-то князя некому! Богатыри далеко - ловят разбойника Потаню, Горыныч в отпуске, войско на учениях… Но если плохие парни собираются захватить мир, то кому-то же надо его спасти? Кто же он, настоящий герой, который придёт на помощь? Конечно, конь Юлий! Настоящий стратег и "великий комбинатор". Он непременно всех спасёт, а если не спасёт, то хотя бы постарается. Главное, чтобы операция по спасению мира не обернулась полной катастрофой...
Меню: Анимированное озвученное
Издатель диска: Lizаrd Cinеmа Тrаdе

Качество: DVD5
Формат: DVD-video
Видео: MPEG-2, VBR 5671 - 8000 Kbps, 720 x 576 pixels 16:9, 25.000 fps PAL, 0.547 bit/pixel
Аудио #1: AC-3 Dolby Digital, CBR 448 kbps 6 ch (Front: L C R, Side: L R, LFE) 48.0 KHz
Аудио #2: DTS, CBR 768 kbps 6 ch (Front: L C R, Side: L R, LFE) 48.0 KHz 24 bits

DVDInfo

Title: Три_богатыря_Ход_конём_2014_DVD5_[rutracker.org]
Size: 4.09 Gb ( 4 289 794,00 KBytes ) - DVD-5
Enabled regions: 1, 2, 3, 4, 5, 6, 7, 8
VTS_01 :
Play Length: 00:00:25
Video: PAL 16:9 (720x576) VBR, Auto Pan&Scan, Auto Letterboxed
Audio:
Russian, AC3, 3/2 (L,C,R,SL,SR)+LFE ch, 448 kbps, Delay 0 mSec
VTS_02 :
Play Length: 01:11:43
Video: PAL 16:9 (720x576) VBR, Auto Pan&Scan, Auto Letterboxed
Audio:
Russian, AC3, 3/2 (L,C,R,SL,SR)+LFE ch, 448 kbps, Delay 0 mSec
Russian, DTS, 3/2 (L,C,R,SL,SR), 768 kbps, Delay 0 mSec
* Menus Information *
VIDEO_TS Menu
Video:
PAL 16:9 (720x576) VBR
Auto Pan&Scan, Auto Letterboxed
English Language Unit :
Title Menu
VTS_01 Menu
Video:
PAL 16:9 (720x576) VBR
Auto Letterboxed
Audio:
Not specified (Dolby AC3, 2 ch)
English Language Unit :
Root Menu
Chapter (PTT) Menu
VTS_02 Menu
Video:
PAL 4:3 (720x576) VBR
English Language Unit :
Root Menu
Audio Menu
Chapter (PTT) Menu

MediaInfo - VTS_02_1.VOB

General
Complete name : V:\Три_богатыря_Ход_конём_2014_DVD5_[rutracker.org]\VIDEO_TS\VTS_02_1.VOB
Format : MPEG-PS
File size : 1 024 MiB
Duration : 20mn 24s
Overall bit rate : 7 014 Kbps
Video
ID : 224 (0xE0)
Format : MPEG Video
Format version : Version 2
Format profile : Main@Main
Format settings, BVOP : Yes
Format settings, Matrix : Default
Duration : 20mn 24s
Bit rate mode : Variable
Bit rate : 5 671 Kbps
Nominal bit rate : 8 000 Kbps
Width : 720 pixels
Height : 576 pixels
Display aspect ratio : 16:9
Frame rate : 25.000 fps
Standard : PAL
Color space : YUV
Chroma subsampling : 4:2:0
Bit depth : 8 bits
Scan type : Progressive
Compression mode : Lossy
Bits/(Pixel*Frame) : 0.547
Stream size : 828 MiB (81%)
Audio #1
ID : 189 (0xBD)-128 (0x80)
Format : AC-3
Format/Info : Audio Coding 3
Mode extension : CM (complete main)
Muxing mode : DVD-Video
Duration : 20mn 24s
Bit rate mode : Constant
Bit rate : 448 Kbps
Channel(s) : 6 channels
Channel positions : Front: L C R, Side: L R, LFE
Sampling rate : 48.0 KHz
Bit depth : 16 bits
Compression mode : Lossy
Stream size : 65.4 MiB (6%)
Audio #2
ID : 189 (0xBD)-137 (0x89)
Format : DTS
Format/Info : Digital Theater Systems
Muxing mode : DVD-Video
Duration : 20mn 24s
Bit rate mode : Constant
Bit rate : 755 Kbps
Channel(s) : 6 channels
Channel positions : Front: L C R, Side: L R, LFE
Sampling rate : 48.0 KHz
Bit depth : 24 bits
Compression mode : Lossy
Stream size : 110 MiB (11%)
Menu

Скриншоты меню

Время раздачи - по возможности.
[www.cybertorrent.ru].t2544.torrent 
Торрент: Зарегистрирован [ 2018-02-16 14:23 ] · 1A46175D02A35C8C8CE68CAEC4B008711293E33B

Скачать .torrent

Скачать

22 KB

Статус: проверено
Скачан: 0 раз
Размер: 4,09 GB
Профиль [ЛС]
Показать сообщения:    

Текущее время: 20-Окт 22:31

Часовой пояс: UTC ± 0



Вы не можете начинать темы
Вы не можете отвечать на сообщения
Вы не можете редактировать свои сообщения
Вы не можете удалять свои сообщения
Вы не можете голосовать в опросах
Вы не можете прикреплять файлы к сообщениям
Вы можете скачивать файлы
Torrents24.ru открытый BitTorrent Torrents24.pl открытый BitTorrent CyberTorrent.ru открытый BitTorrent BtList.ru рейтинг BitTorrent трекеров Яндекс.Метрика