Статистика раздачи
Размер:  1,38 GB   |    Зарегистрирован:  8 месяцев 6 дней   |    Скачан:  0 раз

Полного источника не было: Никогда

 
   
 
 

nic ®

Пол:
Не указан
Стаж:
8 месяцев 7 дней
Сообщений:
60

Крепость: щитом и мечом
Страна: Россия
Жанр: Мультипликация, военная сказка, приключения
Продолжительность: 01:16:43
Год выпуска: 2015
Субтитры: отсутствуют
Режиссёр: Фёдор Дмитриев
Роли озвучивали: Пётр Фёдоров, Евгений Стычкин, Елена Шульман, Екатерина Гороховская, Вадим Никитин, Олег Куликович, Сергей Русскин, Михаил Хрусталёв, Анатолий Петров, и др.
Описание: 1609 год. Идёт война. Польско-Литовские войска взяли в осаду Смоленск, но Русский гарнизон во главе с воеводой Михаилом Шеиным готов держать оборону до конца. Смоленск - главная крепость на пути захватчиков к Москве, и его нельзя сдавать без боя. Об этом знают даже дети. Мальчик Сашка лепит самодельные бомбы из теста и колдует в защиту города - вызывает на помощь царя с огненным щитом и пламенным копьём. Пока волшебный царь не пришёл, Сашка и его друг Фёдор просятся в помощники к воеводе. Им предстоит разрушить коварные планы Польского короля Сигизмунда третьего и справиться с нечистой силой, что по ночам бродит по осаждённой крепости...

Качество: HDRip
Формат: AVI
Видео: XviD 73 MPEG-4, 720x304 (2.35:1) 24.000 fps, ~2105 kbps avg, 0.401 bit/pixel
Аудио: AC-3 Dolby Digital, CBR 448 kbps 6 ch (Front: L C R, Side: L R, LFE) 48.0 KHz

MediaInfo

Общее
Полное имя : V:\Крепость_щитом_и_мечом_2015_HDRip_[rutracker.org].avi
Формат : AVI
Формат/Информация : Audio Video Interleave
Размер файла : 1,38 Гбайт
Продолжительность : 1 ч. 16 м.
Общий поток : 2563 Кбит/сек
Название фильма : Крепость_щитом_и_мечом_2015_HDRip_[rutracker.org]
Режиссёр : OGORODNIKOFFF
Жанр : Военная сказка, приключения
Программа кодирования : VirtualDubMod 1.5.10.3 | www.virtualdub-fr.org || (build 2550/release)
Формат оригинала/Имя : Мультипликация
Правообладатель : rutracker.org
Примечание : Дата рипа 23 января 2016 года
Видео
Идентификатор : 0
Формат : MPEG-4 Visual
Профиль формата : Advanced Simple@L5
Параметр BVOP формата : 1
Параметр QPel формата : Нет
Параметр GMC формата : Без точки перехода
Параметр матрицы формата : Default (MPEG)
Идентификатор кодека : DX50
Идентификатор кодека/Подсказка : DivX 5
Продолжительность : 1 ч. 16 м.
Битрейт : 2105 Кбит/сек
Ширина : 720 пикселей
Высота : 304 пикселя
Соотношение сторон : 2,35:1
Частота кадров : 24,000 кадра/сек
Цветовое пространство : YUV
Субдискретизация насыщенности : 4:2:0
Битовая глубина : 8 бит
Тип развёртки : Прогрессивная
Метод сжатия : С потерями
Бит/(Пиксели*Кадры) : 0.401
Размер потока : 1,13 Гбайт (82%)
Библиотека кодирования : XviD 73
Аудио
Идентификатор : 1
Формат : AC-3
Формат/Информация : Audio Coding 3
Расширение режима : CM (complete main)
Параметр Endianness формата : Big
Идентификатор кодека : 2000
Продолжительность : 1 ч. 16 м.
Вид битрейта : Постоянный
Битрейт : 448 Кбит/сек
Каналы : 6 каналов
Расположение каналов : Front: L C R, Side: L R, LFE
Частота : 48,0 КГц
Битовая глубина : 16 бит
Метод сжатия : С потерями
Размер потока : 246 Мбайт (17%)
Выравнивание : Разделение по промежуткам
Продолжительность промежутка : 42 мс. (1,00 видеокадр)
Время предзагрузки промежутка : 500 мс.

Скриншоты


Время раздачи - по возможности.
[www.cybertorrent.ru].t2542.torrent 
Торрент: Зарегистрирован [ 2018-02-16 14:23 ] · 2631F279FE84DC2B998FBF2FD30744378EE4368F

Скачать .torrent

Скачать

14 KB

Статус: проверено
Скачан: 0 раз
Размер: 1,38 GB
Профиль [ЛС]
Показать сообщения:    

Текущее время: 22-Окт 23:11

Часовой пояс: UTC ± 0



Вы не можете начинать темы
Вы не можете отвечать на сообщения
Вы не можете редактировать свои сообщения
Вы не можете удалять свои сообщения
Вы не можете голосовать в опросах
Вы не можете прикреплять файлы к сообщениям
Вы можете скачивать файлы
Torrents24.ru открытый BitTorrent Torrents24.pl открытый BitTorrent CyberTorrent.ru открытый BitTorrent BtList.ru рейтинг BitTorrent трекеров Яндекс.Метрика