Статистика раздачи
Размер:  3,88 GB   |    Зарегистрирован:  8 месяцев 3 дня   |    Скачан:  0 раз

Полного источника не было: Никогда

 
   
 
 

Volga ®

Пол:
Не указан
Стаж:
8 месяцев 4 дня
Сообщений:
92

Золотая магия XXI века в Крокус Сити Холле
Жанр: Pop, Илюзия
Продолжительность: 01:05:00
Год выпуска: 2016
Описание: Только сегодня у телезрителей есть возможность увидеть магию и волшебство своими глазами, посмотреть на настоящих колдунов и волшебников, которые способны вытворять такие вещи, которые еще долго не укладываются в сознании обычного человека. Зрителям покажут небывалое шоу, которое объединит на одной сцене всех лучших в мире иллюзионистов: они покажут свои самые блестящие номера, которые уже покорили многочисленную публику во всех странах мира. Кто знает, возможно, вам удастся догадаться, в чем же секрет того или иного номера, но все же лучше просто наблюдать за тем, что происходит на сцене, и наслаждаться магией, которая живет прямо перед вами...
Источник: Собственный рип
Качество: HDTV 1080i
Контейнер: TS
Видео кодек: H.264
Аудио кодек: MP2
Видео: H264; 1920x1080 (16:9); 25.000 fps; ~7 828 Kbps
Аудио: MPEG Audio Version 1 Layer 2, 48000Hz, 2 channels stereo 192 Кбит/сек

Отчёт MediaInfo / BDInfo

General
ID : 1 (0x1)
Complete name : E:\1 HD канал\Золотая магия XXI века в Крокус Сити Холле.ts
Format : MPEG-TS
File size : 3.88 GiB
Duration : 1h 5mn
Overall bit rate mode : Variable
Overall bit rate : 8 439 Kbps
Video
ID : 2292 (0x8F4)
Menu ID : 2291 (0x8F3)
Format : AVC
Format/Info : Advanced Video Codec
Format profile : High@L4.0
Format settings, CABAC : Yes
Format settings, ReFrames : 4 frames
Codec ID : 27
Duration : 1h 5mn
Bit rate : 7 828 Kbps
Width : 1 920 pixels
Height : 1 080 pixels
Display aspect ratio : 16:9
Frame rate : 25.000 fps
Color space : YUV
Chroma subsampling : 4:2:0
Bit depth : 8 bits
Scan type : MBAFF
Bits/(Pixel*Frame) : 0.151
Stream size : 3.60 GiB (93%)
Audio
ID : 2295 (0x8F7)
Menu ID : 2291 (0x8F3)
Format : MPEG Audio
Format version : Version 1
Format profile : Layer 2
Mode : Joint stereo
Mode extension : Intensity Stereo + MS Stereo
Codec ID : 3
Duration : 1h 5mn
Bit rate mode : Constant
Bit rate : 192 Kbps
Channel(s) : 2 channels
Sampling rate : 48.0 KHz
Compression mode : Lossy
Stream size : 90.3 MiB (2%)
Language : English

Скриншоты

[www.cybertorrent.ru].t2531.torrent 
Торрент: Зарегистрирован [ 2018-02-16 14:23 ] · C7EDEA0B9C7B50CFC2B3ED0B5B489F4DA82E452F

Скачать .torrent

Скачать

20 KB

Статус: проверено
Скачан: 0 раз
Размер: 3,88 GB
Профиль [ЛС]
Показать сообщения:    

Текущее время: 20-Окт 07:20

Часовой пояс: UTC ± 0



Вы не можете начинать темы
Вы не можете отвечать на сообщения
Вы не можете редактировать свои сообщения
Вы не можете удалять свои сообщения
Вы не можете голосовать в опросах
Вы не можете прикреплять файлы к сообщениям
Вы можете скачивать файлы
Torrents24.ru открытый BitTorrent Torrents24.pl открытый BitTorrent CyberTorrent.ru открытый BitTorrent BtList.ru рейтинг BitTorrent трекеров Яндекс.Метрика