Статистика раздачи
Размер:  22,19 GB   |    Зарегистрирован:  4 месяца 2 дня   |    Скачан:  0 раз

Полного источника не было: Никогда

Личеров:  1  [  0 KB/s  ]  
 
   
 
 

DR_KTO ®

Пол:
Не указан
Стаж:
4 месяца 3 дня
Сообщений:
97

Мультстудия (74 вып.)
Дата/Год выпуска: 2011-2013
Страна: Россия
Жанр: Детский, образовательный
Продолжительность: 00:26:20 х 74
Перевод: Не требуется
Русские субтитры: нет
Телеканал: Карусель http://www.karusel-tv.ru/announce/10193
Ведущий: Александр Олешко
Описание: Каждый выпуск программы рассказывает о новой технике создания мультипликационного фильма. Юные зрители узнают все секреты производства рисованных, компьютерных, пластилиновых, кукольных и других мультфильмов. Мы раскроем интересные подробности создания любимых мультфильмов и мульт-персонажей, а еще тайны озвучивания и монтажа.
Также в программе вы увидите интервью в студии с известным мультипликатором. Прямо на глазах у телезрителей гость раскроет секреты своего мастерства. Заключительная рубрика — «Вы тоже так можете!» — рассказывает о том, как в домашних условиях можно создать свой собственный мультфильм.
Ведущий программы, Александр Олешко, — большой любитель мультипликации. Он обожает мультфильмы не меньше, чем дети. Ему все интересно, он хочет как можно больше узнать и с радостью поделится своими открытиями с телезрителями.
За кадром. Студия программы оснащена оборудованием, позволяющим демонстрировать зрителям кадры мультфильмов, фотографии знаменитых мультипликаторов, оборудование лучших мировых студий. Некоторые сюжеты снимаются в детских анимационных кружках и школах, что побуждает детей попробовать себя в анимационном жанре.
Доп. информация: Автор идеи:Екатерина Соколова
Авторы сценария:Татьяна Макарова, Елена Минервина
Режиссер: Мария Визитей
Оператор: Павел Ефимов
Композитор: Виктор Дормидонтов
Передачу ведет: Александр Олешко
Ссылка на предыдущие и альтернативные раздачи: http://cybertorrent.ru/tracker.php?nm=%D0%9C%D1%83%D0%BB%D1%8C%D1%82%D1%81%D1...0%B5%D0%BB%D1%8C
Сэмпл: http://multi-up.com/1082250
Релиз:
качество: SATRip
формат: AVI
Видео: 640x480 (1.33:1), 25 fps, XviD build 64 ~1500 kbps avg, 0.20 bit/pixel
Аудио: 48 kHz, MPEG Layer 3, 2 ch, ~128.00 kbps avg

Список выпусков/серий

01. 3D-анимация.avi
02. Кукольный мультфильм.avi
05. Виртуальное пространство.avi
06. Озвучка мультфильмов.avi
07. Flash-анимация.avi
08. Stop-motion.avi
09. День анимации.avi
11. «Сыпучая» анимация.avi
12. Ротоскопирование (эклер).avi
13. Аниме.avi
14. Как рождаются мультперсонажи.avi
15. Живопись по стеклу.avi
16. Кукольные персонажи.avi
17. Новый год.avi
18. Музыка в мультфильмах. Техника рисования на воде.avi
21. Художник-мультипликатор.avi
22. Силуэтная анимация.avi
23. Режиссёры мультфильмов.avi
25. Шумовая комната.avi
26. Профессия - бутафор и декоратор.avi
27. Анимация в музыкальных клипах.avi
28. Профессия - актёр озвучания и дубляжа.avi
29. Живая анимация.avi
32. Жанры анимации.avi
33. Анимационные спецэффекты.avi
34. Мультгерои в кинофильмах.avi
35. Обучающая анимация.avi
36. 5D анимация.avi
38. Романтические мультфильмы ..avi
39. Ожившая картина (юзерпики).avi
40. Анимация на городских зданиях.avi
41. Игольчатый экран.avi
42. Комиксы.avi
43. Коллажная анимация.avi
44. Анимация для мобильных телефонов.avi
45. Спорт в мультипликации.avi
46. Второстепенные персонажи .avi
47. Саундтреки к мультфильмам .avi
48. Мимика мультперсонажей .avi
49. Штриховая анимация.avi
50. Чудеса в мультипликации.avi
51. Синтетическая анимация.avi
52. Графическая анимация.avi
53. Экспериментальная анимация.avi
54. Социальная анимация.avi
55. Фризлайт-анимация.avi
56. Воображаемый мир анимации.avi
57. Мультфильмы народов мира.avi
58. Сценации в мультипликации.avi
59. Совмещение техник в мультипликации.avi
60. Сиквелы в мультипликации.avi
61. Ремейки в мультипликации.avi
62. Заставка в мильтипликации.avi
63. Путь создания мультфильма.avi
64. Хромакей.avi
65. Фон в мультипликации.avi
66. Секреты прикладной анимации .avi
67. Анимация животных.avi
68. Мультфильм-игра .avi
69. Мультфильм-комедия .avi
70. Правила анимации.avi
71. Тайны анимации.avi
72. Мультфильмы-мюзиклы.avi
74. Мультипликационные ляпы.avi
75. Мультфильмы без слов.avi
76. Мода в мультипликации.avi
82. Документальная анимация.avi
83. Олимпиада в мультфильмах.avi
84. Прототипы мультперсонажей.avi
86. Мультфильм-басня.avi
87. Мультфильм-пословица.avi
88. Фантастика в мультфильмах.avi
89. Характер мультперсонажей.avi
90. Цветовые решения в мультфильмах.avi
06.01.2016 добавлено 5 выпусков:
17. Новый год.avi
74. Мультипликационные ляпы.avi
75. Мультфильмы без слов.avi
76. Мода в мультипликации.avi
83. Олимпиада в мультфильмах.avi

MediaInfo

Общее
Полное имя : D:\01 РАЗДАЧИ ШОУ\МУЛЬТСТУДИЯ\Мультстудия\01. 3D-анимация.avi
Формат : AVI
Формат/Информация : Audio Video Interleave
Размер файла : 289 Мбайт
Продолжительность : 24 м.
Общий поток : 1642 Кбит/сек
Программа кодирования : Lavf54.63.100
Видео
Идентификатор : 0
Формат : MPEG-4 Visual
Профиль формата : Advanced Simple@L5
Параметр BVOP формата : 2
Параметр QPel формата : Нет
Параметр GMC формата : Без точки перехода
Параметр матрицы формата : Default (H.263)
Идентификатор кодека : XVID
Идентификатор кодека/Подсказка : XviD
Продолжительность : 24 м.
Битрейт : 1501 Кбит/сек
Ширина : 640 пикселей
Высота : 480 пикселей
Соотношение сторон : 4:3
Частота кадров : 25,000 кадров/сек
Цветовое пространство : YUV
Субдискретизация насыщенности : 4:2:0
Битовая глубина : 8 бит
Тип развёртки : Прогрессивная
Метод сжатия : С потерями
Бит/(Пиксели*Кадры) : 0.195
Размер потока : 264 Мбайт (91%)
Библиотека кодирования : XviD 64
Аудио
Идентификатор : 1
Формат : MPEG Audio
Версия формата : Version 1
Профиль формата : Layer 3
Идентификатор кодека : 55
Идентификатор кодека/Подсказка : MP3
Продолжительность : 24 м.
Вид битрейта : Постоянный
Битрейт : 128 Кбит/сек
Каналы : 2 канала
Частота : 48,0 КГц
Метод сжатия : С потерями
Размер потока : 22,5 Мбайт (8%)
Выравнивание : Соединение по промежуткам
Продолжительность промежутка : 24 мс. (0,60 видеокадр)
Время предзагрузки промежутка : 24 мс.

Скриншоты

[www.cybertorrent.ru].t2520.torrent 
Торрент: Зарегистрирован [ 2018-02-16 14:23 ] · 1A0619CBC12E0F8EE2FB9E7097B45DBBE77F0705

Скачать .torrent

Скачать

117 KB

Статус: проверено
Скачан: 0 раз
Размер: 22,19 GB
Профиль [ЛС]
Показать сообщения:    

Текущее время: 18-Июн 20:58

Часовой пояс: UTC ± 0



Вы не можете начинать темы
Вы не можете отвечать на сообщения
Вы не можете редактировать свои сообщения
Вы не можете удалять свои сообщения
Вы не можете голосовать в опросах
Вы не можете прикреплять файлы к сообщениям
Вы можете скачивать файлы