Статистика раздачи
Размер:  17 MB   |    Зарегистрирован:  5 месяцев 27 дней   |    Скачан:  0 раз

Полного источника не было: Никогда

Личеров:  1  [  0 KB/s  ]  
 
   
 
 

soda ®

Пол:
Не указан
Стаж:
6 месяцев 1 день
Сообщений:
208

Кочин Па! / Kochin Pa!
Страна: Япония
Год выпуска: 2015 г.
Жанр: комедия
Тип: TV
Продолжительность: ХХ эп. по 15 сек.
Режиссер: Сугахара Сота
Описание: Ультракороткосерийная анимешка нового поколения насквозь коммерческого характера, рекламирующая игровые автоматы пачинко.
Качество: WEBRip
Тип релиза: Без хардсаба
Формат видео: MР4
Наличие линковки: Нет
Релиз/Автор рипа: KasaiDot
Видео: H264, 1920x1080, 8bits, 2980kbps, 29.970fps
Аудио: AAC, 2ch, 126kbps, 44.1kHz Язык Японский
Субтитры: ass, отдельным файлом Язык субтитров русский ; Перевод: Werebeast

Подробные тех. данные

Format : MPEG-4
Format profile : Base Media
Codec ID : isom
File size : 5.59 MiB
Duration : 15s 117ms
Overall bit rate : 3 101 Kbps
Video
ID : 1
Format : AVC
Format/Info : Advanced Video Codec
Format profile : High@L4.0
Format settings, CABAC : Yes
Format settings, ReFrames : 3 frames
Codec ID : avc1
Codec ID/Info : Advanced Video Coding
Duration : 15s 49ms
Bit rate : 2 980 Kbps
Width : 1 920 pixels
Height : 1 080 pixels
Display aspect ratio : 16:9
Frame rate mode : Constant
Frame rate : 29.970 fps
Color space : YUV
Chroma subsampling : 4:2:0
Bit depth : 8 bits
Scan type : Progressive
Bits/(Pixel*Frame) : 0.048
Stream size : 5.35 MiB (96%)
Audio
ID : 2
Format : AAC
Format/Info : Advanced Audio Codec
Format profile : LC
Codec ID : 40
Duration : 15s 117ms
Bit rate mode : Constant
Bit rate : 126 Kbps
Channel count : 2 channels
Channel positions : Front: L R
Sampling rate : 44.1 KHz
Compression mode : Lossy
Delay relative to video : 33ms
Stream size : 232 KiB (4%)

Список эпизодов

1. Парарира Айра
2. Чибитто Айра
3. Эн-Айра

Отличия от существующих раздач

http://cybertorrent.ru/viewtopic.php?t=5143065
- 1080р

Скриншоты

[www.cybertorrent.ru].t2519.torrent 
Торрент: Зарегистрирован [ 2018-02-16 14:23 ] · 03F05D8CDC179A597C9CAE59226E1905D45DB810

Скачать .torrent

Скачать

6 KB

Статус: проверено
Скачан: 0 раз
Размер: 17 MB
Профиль [ЛС]
Показать сообщения:    

Текущее время: 16-Авг 13:30

Часовой пояс: UTC ± 0



Вы не можете начинать темы
Вы не можете отвечать на сообщения
Вы не можете редактировать свои сообщения
Вы не можете удалять свои сообщения
Вы не можете голосовать в опросах
Вы не можете прикреплять файлы к сообщениям
Вы можете скачивать файлы
Torrents24.ru открытый BitTorrent Torrents24.pl открытый BitTorrent CyberTorrent.ru открытый BitTorrent BtList.ru рейтинг BitTorrent трекеров Яндекс.Метрика