Статистика раздачи
Размер:  13,57 GB   |    Зарегистрирован:  4 месяца 4 дня   |    Скачан:  0 раз

Полного источника не было: Никогда

Личеров:  1  [  0 KB/s  ]  
 
   
 
 

Volga ®

Пол:
Не указан
Стаж:
4 месяца 5 дней
Сообщений:
92

Le Plus Grand Cabaret du Monde - 31.12.15
Год выпуска: 2015
Страна: Франция
Жанр: шоу, кабаре, цирк
Продолжительность: 02:56:40
Описание:
Выпуск (от 31.12.15) телепередачи "Le Plus Grand Cabaret du Monde"
(телеканал France 2) в Full HD качестве. Оставлены только выступления артистов. Перевод не требуется.
Выступают:
01. Le Ballet Triana - danse Boda
02. Jamie Allan - Split Screens
03. La Troupe Hohote - troupe monocycles
04. Igudesman & Joo - duo musiciens burlesques
05. Alessio - dressage de perroquets
06. Alexander Kulakov - jongleur
07. Les Étoiles du Cirque de Pékin - filles avec épées
08. Chris Torrente - magie comique
09. Catwall Acrobats - troupe bascule
10. Martyn Chabry - quick change musical
11. Duo Solys - main à main
12. Jean-Pierre Blanchard - peinture
13. Olimecha Trio - trampoline
14. Le Ballet Triana - danse mirlando salsa
15. Magic Unlimited - fille élastique
16. Felipe Mejias - peinture sur sable
17. Les Étoiles du cirque de Pékin - antipodistes
18. Pierre Xamin - masques
19. Compania Havana - troupe de la balançoire
20. C.Y. - magie colombes
21. David Larible - clown
22. Ion - duo aérien dans sphère
23. Charlie Fry - anneaux magiques
24. Ballet Triana - danse volare
25. Jamie Allan - magie des tablettes
26. Alain Choquette
27. Hacuma Matata - troupe aux mats
28. Patrick Sebastien
29. Enzo Weyne - grandes illusions
30. Les Étoiles du cirque de Pékin - jarres
31. Ivan Chary - petit monsieur
32. Vladimir & Olga Omelchenko - rola-rola
33. Bernard Bilis - magie close-up
34. Fo Ksa Bouge - jeux de mains
35. Les Etoiles du cirque de Pékin - équilibre musical
36. Dani Lary - calèche magique
37. Patrick Sebastien
Дополнительная информация: используемый видеоредактор - TMPGEnc MPEG Smart Renderer 4
Качество: HDTVRip
Контейнер: mkv
Видео кодек: H.264
Аудио кодек: AC3
Чаптеры: есть
Видео: H.264, 1920x1080, 25.000 fps, 10400 Kbps
Аудио: AC3, 2.0 ch, 48000 Hz, 384 Kbps

MediaInfo

General
Unique ID : 293551363896124193739555437677819838186 (0xDCD7EFAA6E6CBE44BBE22DADD19DBEEA)
Complete name : E:\Le Plus Grand Cabaret du Monde 31.12.2015.mkv
Format : Matroska
Format version : Version 4 / Version 2
File size : 13.6 GiB
Duration : 2h 56mn
Overall bit rate : 11.0 Mbps
Encoded date : UTC 2016-01-01 10:09:10
Writing application : TMPGEnc MPEG Smart Renderer 4 Version 4.2.4.68
Writing library : TMPGEnc MPEG Smart Renderer 4 Version 4.2.4.68
Video
ID : 1
Format : AVC
Format/Info : Advanced Video Codec
Format profile : High@L4
Format settings, CABAC : Yes
Format settings, ReFrames : 4 frames
Codec ID : V_MPEG4/ISO/AVC
Duration : 2h 56mn
Bit rate : 10.4 Mbps
Width : 1 920 pixels
Height : 1 080 pixels
Display aspect ratio : 16:9
Frame rate mode : Constant
Frame rate : 25.000 fps
Standard : Component
Color space : YUV
Chroma subsampling : 4:2:0
Bit depth : 8 bits
Scan type : Interlaced
Scan order : Top Field First
Bits/(Pixel*Frame) : 0.200
Stream size : 12.8 GiB (95%)
Default : Yes
Forced : No
Color range : Limited
Color primaries : BT.601 PAL
Transfer characteristics : BT.470 System B, BT.470 System G
Matrix coefficients : BT.601
Audio
ID : 2
Format : AC-3
Format/Info : Audio Coding 3
Mode extension : CM (complete main)
Format settings, Endianness : Big
Codec ID : A_AC3
Duration : 2h 56mn
Bit rate mode : Constant
Bit rate : 384 Kbps
Channel(s) : 2 channels
Channel positions : Front: L R
Sampling rate : 48.0 KHz
Compression mode : Lossy
Stream size : 485 MiB (3%)
Language : French
Default : Yes
Forced : No
Menu

Скриншоты


Предыдущий выпуск телепередачи: http://cybertorrent.ru/viewtopic.php?t=5108363
Следующий выпуск телепередачи: http://cybertorrent.ru/viewtopic.php?t=5162056
[www.cybertorrent.ru].t2515.torrent 
Торрент: Зарегистрирован [ 2018-02-16 13:28 ] · 3BF92F3756631F1E7B860961C594000D341EE05C

Скачать .torrent

Скачать

68 KB

Статус: проверено
Скачан: 0 раз
Размер: 13,57 GB
Профиль [ЛС]
Показать сообщения:    

Текущее время: 21-Июн 07:56

Часовой пояс: UTC ± 0



Вы не можете начинать темы
Вы не можете отвечать на сообщения
Вы не можете редактировать свои сообщения
Вы не можете удалять свои сообщения
Вы не можете голосовать в опросах
Вы не можете прикреплять файлы к сообщениям
Вы можете скачивать файлы