Статистика раздачи
Размер:  31,98 GB   |    Зарегистрирован:  8 месяцев 4 дня   |    Скачан:  0 раз

Полного источника не было: Никогда

Личеров:  6  [  0 KB/s  ]  
 
   
 
 

krek ®

Пол:
Не указан
Стаж:
8 месяцев 5 дней
Сообщений:
109

- Год выпуска: 2002
Страна: Япония
Жанр: фантастика, меха, драма
Продолжительность: ТВ, 48 эп. по 24 мин. + спешл
Выпуск: c 05.10.2002 по 27.09.2003-Перевод:

  • русские субтитры от Ftor & Dan & Hiroki & g[UN]mAn-Режиссер: Фукуда Мицуо
    Студия: Sunrise-Описание:
    Космическая эра, год 70-й. После уничтожения одного из космических поселений напряженность между Землёй и жителями колоний быстро переросла в полномасштабный вооруженный конфликт. Никто не сомневался, что победу одержат более многочисленные войска Земли, но первые прогнозы оказались ошибочными. С начала войны прошло почти 11 месяцев, но конца ей не видно.
    Это ожесточенное противостояние превращается в настоящую гражданскую войну, искажая понятие справедливости, делая лучших друзей врагами, мешая любящим людям обрести друг друга и заставляя людей, помимо их желания, каждую минуту принимать трудные решения.
    Сериал является одним из лучших представителей своего жанра, и снискал любовь миллионов зрителей во всем мире. Вышедший на телеэкраны в 2002 году, он сразу стал классикой и вошел в анналы вселенной Гандама. Этому особенно способствовали захватывающий сюжет (без филлеров и фансервиса), поднимающий серьезные философские и этические вопросы, грамотная тонкая проработка характеров персонажей и великолепная оркестровая музыка. "Из пепла войны восстань, ГАНДАМ!"
    © Ирина Молокова
    50 серий чистого удовольствия — пожалуй, самое точное определение, которое можно дать происходящему на экране. Сериал смотрится на одном дыхании, и в особо тяжелых случаях (например, при первом просмотре) способен нагло проигнорировать ваши желания поспать, поучиться/поработать или заняться чем-нибудь совершенно неГандамным. Почему?
    Да очень просто: в этом сериале прекрасно абсолютно всё.
    © MSky-Информационные ссылки: AniDB || World Art || MAL-Качество: BDRip
    Энкод: Winter - RG Pantheon
    Тип видео: без хардсаба, без линковки
    Формат: mkv
    Видео: x264 (Hi10p), 1280x720, ~3500 Kbps, 23.976 fps
    Аудио JAP: Vorbis, 48000Hz, ~256 Kbps, 2ch
    Аудио RUS: AC3, 48000Hz, ~192 Kbps, 2ch (внешними файлами)-

    Список озвучек в раздаче

  • одноголосая (муж.) от Azazel (SHIZA)
  • Список эпизодов

    01. False Peace
    02. It's Name is Gundam
    03. Collapsing Land
    04. Silent Run
    05. Phase Shift Down
    06. The Vanishing Gundam
    07. The Scar of Space
    08. Songstress of the Enemy Forces
    09. The Fading Light
    10. Separate Ways
    11. The Awakening Sword
    12. Flay's Decision
    13. Stars Falling in Space
    14. Respective Solitudes
    15. Burning Sandstorm
    16. Cagalli Returns
    17. Payback
    18. Fangs of the Enemy
    19. On a Calm Day
    20. The End of the Sandstorm
    21. The Sea Dyed Red
    22. Fateful Encounter
    23. War for Two
    24. Land of Peace
    25. Endless Rondo
    26. Kira
    27. The Turning Point
    28. Flashing Blades
    29. Grieving Skies
    30. In the Promised Land
    31. Gathering Darkness
    32. Seen and Unseen
    33. The Descending Sword
    34. In the Name of Justice
    35. Divine Thunder
    36. Decisive Fire
    37. Athrun
    38. Into the Dawn Skies
    39. Trembling World
    40. Lacus Strikes
    41. What Stands in the Way
    42. Spiral of Encounters
    43. The Opening Door
    44. A Place for the Soul
    45. The Nightmare Reborn
    46. Day of Wrath
    47. The Final Light
    48. Towards an Endless Tomorrow
    SP. Between the Stars

    Скриншоты

    Подробные тех. данные

    Общее
    Уникальный идентификатор : 204460999616723097096584283294157702093 (0x99D1C193D7355E3C828B3F6B479703CD)
    Полное имя : S:\Anime\720p\Kidou Senshi Gundam SEED [BD] [720p]\[W] Kidou Senshi Gundam SEED 02 [BDrip 1280x720 x264 Vorbis].mkv
    Формат : Matroska
    Версия формата : Version 2
    Размер файла : 667 Мбайт
    Продолжительность : 23 м.
    Режим общего битрейта : Переменный
    Общий поток : 3903 Кбит/сек
    Дата кодирования : UTC 2014-11-02 17:36:05
    Программа кодирования : mkvmerge v2.9.8 ('C'est le bon') built on Aug 13 2009 12:49:06
    Библиотека кодирования : libebml v0.7.7 + libmatroska v0.8.1
    Видео
    Идентификатор : 1
    Формат : AVC
    Формат/Информация : Advanced Video Codec
    Профиль формата : High 10@L4.1
    Параметр CABAC формата : Да
    Параметр ReFrames формата : 9 кадров
    Идентификатор кодека : V_MPEG4/ISO/AVC
    Продолжительность : 23 м.
    Битрейт : 3569 Кбит/сек
    Ширина : 1280 пикселей
    Высота : 720 пикселей
    Соотношение сторон : 16:9
    Режим частоты кадров : Постоянный
    Частота кадров : 23,976 кадра/сек
    Цветовое пространство : YUV
    Субдискретизация насыщенности : 4:2:0
    Битовая глубина : 10 бит
    Тип развёртки : Прогрессивная
    Бит/(Пиксели*Кадры) : 0.162
    Размер потока : 610 Мбайт (91%)
    Библиотека кодирования : x264 core 132 r2309 3b1f1f7
    Настройки программы : cabac=1 / ref=9 / deblock=1:-2:-2 / analyse=0x3:0x133 / me=umh / subme=9 / psy=1 / psy_rd=0.90:0.00 / mixed_ref=1 / me_range=24 / chroma_me=1 / trellis=2 / 8x8dct=1 / cqm=0 / deadzone=21,11 / fast_pskip=1 / chroma_qp_offset=-2 / threads=12 / lookahead_threads=2 / sliced_threads=0 / nr=0 / decimate=0 / interlaced=0 / bluray_compat=0 / constrained_intra=0 / bframes=8 / b_pyramid=2 / b_adapt=2 / b_bias=0 / direct=1 / weightb=1 / open_gop=0 / weightp=2 / keyint=250 / keyint_min=23 / scenecut=40 / intra_refresh=0 / rc=crf / mbtree=0 / crf=15.7 / qcomp=0.70 / qpmin=9 / qpmax=40 / qpstep=4 / ip_ratio=1.40 / pb_ratio=1.30 / aq=1:0.90
    Default : Нет
    Forced : Нет
    Аудио
    Идентификатор : 2
    Формат : Vorbis
    Параметр Floor формата : 1
    Идентификатор кодека : A_VORBIS
    Продолжительность : 23 м.
    Вид битрейта : Переменный
    Битрейт : 256 Кбит/сек
    Каналы : 2 канала
    Частота : 48,0 КГц
    Метод сжатия : С потерями
    Размер потока : 43,7 Мбайт (7%)
    Библиотека кодирования : libVorbis (Schaufenugget) (20101101 (Schaufenugget))
    Язык : Japanese
    Default : Да
    Forced : Нет
    - -

    Информация о релизе

  • Выбор видео, перевода, озвучки, а также типа сборки материала осуществляется релизером и не подлежит обсуждению. Если вы считаете, что раздаваемый материал противоречит правилам раздела "Аниме" rutracker.org, сообщите об этом одному из модераторов раздела.
  • В случае появления нового материала или же лучшего по качеству материала релизер оставляет за собой право обновить раздачу. В этом случае вам необходимо ознакомиться с изменениями (добавлениями) и перекачать торрент.
  • Данный релиз предназначен для просмотра на ПК. Воспроизведение на иных проигрывателях не гарантируется. Для просмотра рекомендуется Media Player Classic с установленным пакетом кодеков K-Lite.
  • Данный релиз содержит 10-битное видео (Hi10p). Для корректного воспроизведения обязательно используйте кодеки, поддерживающие 10-битное видео.
    Обсудить частные случаи проблем с воспроизведением и получить дополнительную информацию можно здесь.

  • Данный релиз предназначен для просмотра с внешними субтитрами и внешними звуковыми дорожками.
  • Для просмотра с внешней звуковой дорожкой нужно:
    перекинуть файлы .mka из папки "RUS Sound [<автор(ы) озвучки>]" в одну папку с видео и переключить звуковую дорожку в плеере при просмотре. Как это сделать в разных плеерах подробно описано здесь.

  • Для просмотра с субтитрами нужно:
    перекинуть файлы .ass из папки "RUS Subtitles [<автор(ы) перевода>]" в одну папку с видео - плеер подгрузит их автоматически при открытии видео.

  • Если у вас возникли проблемы с просмотром, не связанные с описанным выше, сообщите о них автору раздачи посредством сообщения в теме или ЛС Aglenn.
  • [www.cybertorrent.ru].t2505.torrent 
    Торрент: Зарегистрирован [ 2018-02-16 13:28 ] · DA593E997C0DB9B62AD240C3B2031CAAE0787F73

    Скачать .torrent

    Скачать

    176 KB

    Статус: проверено
    Скачан: 0 раз
    Размер: 31,98 GB
    Профиль [ЛС]
    Показать сообщения:    

    Текущее время: 20-Окт 21:48

    Часовой пояс: UTC ± 0



    Вы не можете начинать темы
    Вы не можете отвечать на сообщения
    Вы не можете редактировать свои сообщения
    Вы не можете удалять свои сообщения
    Вы не можете голосовать в опросах
    Вы не можете прикреплять файлы к сообщениям
    Вы можете скачивать файлы
    Torrents24.ru открытый BitTorrent Torrents24.pl открытый BitTorrent CyberTorrent.ru открытый BitTorrent BtList.ru рейтинг BitTorrent трекеров Яндекс.Метрика