Статистика раздачи
Размер:  4,58 GB   |    Зарегистрирован:  9 месяцев 24 дня   |    Скачан:  0 раз

Полного источника не было: Никогда

 
   
 
 

Gomer ®

Пол:
Не указан
Стаж:
9 месяцев 25 дней
Сообщений:
40

Гриффины / Family Guy
Страна: США
Жанр: Комедия, Пародия, Сатира
Продолжительность: ~20 минут
Год выпуска: 2014-2015
Перевод: Профессиональный (многоголосый закадровый)
Русские субтитры: нет
Режиссёр: Сет МакФарлейн / Seth MacFarlane
Роли озвучивали: Олег Форостенко - Питер, Брайан, Кливленд и другие.
Василий Зотов - Крис, Стьюи, Куагмир и другие.
Людмила Ильина - все женские и детские роли.
Описание: "Гриффины" - анимационное ТВ-шоу, созданное Сетом МакФарлейном для телеканала FOX. Как нетрудно догадаться, главными героями шоу является семейка Гриффинов: тупой, но полный сумасшедших идей, составляющих львиную долю шуток сериала, отец семейства Питер; его любящая и терпеливая жена Лоис, всеми силами пытающаяся превратить Гриффинов в нормальную семью; их интеллектуально развитый не по годам, вынашивающий идею мирового господства младший сын Стьюи; дочь-ботаник, обречённая из-за этого на одиночество и непонимание как в школе так и дома, Мэг; и 13-ти летний отсталый в развитии лет на 10, сын Крис. Также полноценным членом семьи является пёс Брайан - склонный к меланхолии эстет, спокойно наблюдающий с бокалом вина в лапе над приключениями Питера и остальных членов семьи (и это при всём притом, что остальные собаки в сериале не являются очеловеченными).
Список серий:
01. The Simpsons Guy (Симпсоны и Гриффины: Кроссовер) (серия в 2 частях)
02. The Book of Joe (Книга Джо)
03. Baking Bad (Плохая выпечка)
04. Brian the Closer (Брайан ближе)
05. Turkey Guys (Индейколовы)
06. The 2000-Year-Old Virgin (2000-летний Девственник)
07. Stewie, Chris, & Brian's Excellent Adventure (Невероятные приключения Стьюи, Криса и Брайана)
08. Our Idiot Brian (Наш идиот Брайан)
09. This Little Piggy (Этот маленький поросёнок)
10. Quagmire's Mom (Мама Куагмира)
11. Encyclopedia Griffin (Энциклопедия Гриффина)
12. Stewie is Enceinte (Беременный Стьюи)
13. Dr. C and the Women (Доктор К. и Женщины)
14. JOLO (#ДЖОЛО)
15. Once Bitten (Однажды укушенный)
16. Roasted Guy (Высмеянный)
17. Fighting Irish (Битва Ирландцев)
18. Take My Wife (Заберите Мою Жену)
Доп. информация: Представляю новый 13 сезон мультсериала "Гриффины" в переводе телеканала 2х2. В новом сезоне сменился третий голос: вместо Ильи Хвостикова теперь половину мужских голосов будет озвучивать Василий Зотов. В общем наслаждайтесь!
Ссылка на предыдущие и альтернативные раздачи: http://cybertorrent.ru/tracker.php?nm=Family%20Guy
Качество: SATRip
Формат: AVI
Видео: Xvid, 720х576, 25.00fps, 1700 kbps
Аудио: MPEG Audio Layer 3, 48000Hz, stereo, 192 kbps
Субтитры: отсутствуют

Подробные технические данные

General
Complete name : C:\Documents and Settings\Admin\Мои документы\Гриффины 13\01(1). The Simpsons Guy (1).avi
Format : AVI
Format/Info : Audio Video Interleave
File size : 248 MiB
Duration : 20mn 16s
Overall bit rate : 1 707 Kbps
Writing application : Lavf52.61.0
Video
ID : 0
Format : MPEG-4 Visual
Format profile : Simple@L1
Format settings, BVOP : No
Format settings, QPel : No
Format settings, GMC : No warppoints
Format settings, Matrix : Default (H.263)
Codec ID : XVID
Codec ID/Hint : XviD
Duration : 20mn 16s
Bit rate : 1 502 Kbps
Width : 720 pixels
Height : 576 pixels
Display aspect ratio : 4:3
Frame rate : 25.000 fps
Standard : PAL
Color space : YUV
Chroma subsampling : 4:2:0
Bit depth : 8 bits
Scan type : Progressive
Compression mode : Lossy
Bits/(Pixel*Frame) : 0.145
Stream size : 218 MiB (88%)
Writing library : Lavc52.66.0
Audio
ID : 1
Format : MPEG Audio
Format version : Version 1
Format profile : Layer 3
Mode : Joint stereo
Mode extension : MS Stereo
Codec ID : 55
Codec ID/Hint : MP3
Duration : 20mn 16s
Bit rate mode : Constant
Bit rate : 192 Kbps
Channel(s) : 2 channels
Sampling rate : 44.1 KHz
Compression mode : Lossy
Stream size : 27.9 MiB (11%)
Alignment : Aligned on interleaves
Interleave, duration : 26 ms (0.65 video frame)

Скриншоты



[www.cybertorrent.ru].t2474.torrent 
Торрент: Зарегистрирован [ 2018-02-16 11:35 ] · 3D0388785B84F929944505EBA29F77BBF694C1A2

Скачать .torrent

Скачать

13 KB

Статус: проверено
Скачан: 0 раз
Размер: 4,58 GB
Профиль [ЛС]
Показать сообщения:    

Текущее время: 12-Дек 23:44

Часовой пояс: UTC ± 0



Вы не можете начинать темы
Вы не можете отвечать на сообщения
Вы не можете редактировать свои сообщения
Вы не можете удалять свои сообщения
Вы не можете голосовать в опросах
Вы не можете прикреплять файлы к сообщениям
Вы можете скачивать файлы
Torrents24.ru открытый BitTorrent Torrents24.pl открытый BitTorrent CyberTorrent.ru открытый BitTorrent BtList.ru рейтинг BitTorrent трекеров Яндекс.Метрика