Статистика раздачи
Размер:  13,82 GB   |    Зарегистрирован:  6 месяцев   |    Скачан:  0 раз

Полного источника не было: Никогда

 
   
 
 

DR_KTO ®

Пол:
Не указан
Стаж:
6 месяцев 1 день
Сообщений:
105

-Оригинальное название: The Simpsons
Русское название: Симпсоны
Год выпуска: 2014
Страна: США
Жанр: Комедия, сатира
Продолжительность: 20 минут (серия)-Перевод: Профессиональный (многоголосый, закадровый) по заказу 2х2 (Быстров, Савина, Эльдаров)
Субтитры: есть (английские)-Производство: FOX
Режиссер: Мэтт Гроунинг / Matt Groening-Роли озвучивали: Дэн Кастелланета, Джули Кавнер, Нэнси Картрайт, Ярдли Смит, Гарри Ширер, Хэнк Азария, Памела Хейден, Тресс МакНилл, Карл Видерготт, Мэгги Росвэлл и др.-Описание: Симпсоны живут в вымышленном городе Спрингфилд, со своим обществом и историей. Гомер - отец семейства, который дает плохие советы и работает инспектором безопасности на атомной электростанции; Мардж - любящая мать и жена, старается сохранить спокойствие в семье; Барт - 10 летний хулиган; Лиза - философский 8-летний ребенок; и Мэгги - младенец, который общается посредством соски.- -Спасибо ALEKS KV, #Antisnl# за звук, ALEKS KV за синхронизацию дорожек 2х2.-Сэмпл: скачать
Качество: WEB-DL 720p
Формат: MKV
Видео кодек: h264
Аудио кодек: AC3
Видео: MPEG4 Video (H264) 1280x720 23.976fps ~4Mbps
Аудио:

  • русская 2x2: Dolby AC3 48000Hz stereo 192Kbps,
  • английская: Dolby AC3 48000Hz 6ch 384Kbps
    Скриншоты:
    -

    Список серий

    26 сезон:
    01. Clown in the Dumps
    02. The Wreck of the Relationship
    03. Super Franchise Me
    04. Treehouse of Horror XXV
    05. Opposites A-Frack
    06. Simpsorama
    07. Blazed and Confused
    08. Covercraft
    09. I Won't Be Home for Christmas
    10. The Man Who Came to Be Dinner
    11. Bart's New Friend
    12. The Musk Who Fell To Earth
    13. Walking Big & Tall
    14. My Fare Lady
    15. The Princess Guide
    16. Sky Police
    17. Waiting for Duffman
    18. Peeping Mom
    19. The Kids Are All Fight
    20. Let's Go Fly a Coot
    21. Bull-E
    22. Mathlete's Feat

    Media Info

    Код:General
    Unique ID : 230102573631528108742888682672127016491 (0xAD1C24C8755B9323A2E28C48CD84FE2B)
    Complete name : x:\xxxxxxxxx\The Simpsons. 26 season (WEB-DL l 720p l SerGoLeOne)\01. Clown in the Dumps.mkv
    Format : Matroska
    Format version : Version 2
    File size : 600 MiB
    Duration : 21mn 12s
    Overall bit rate : 3 959 Kbps
    Encoded date : UTC 2015-09-29 00:30:57
    Writing application : mkvmerge v5.5.0 ('Healer') built on Apr 6 2012 21:43:24
    Writing library : libebml v1.2.3 + libmatroska v1.3.0
    Video
    ID : 1
    Format : AVC
    Format/Info : Advanced Video Codec
    Format profile : High@L3.1
    Format settings, CABAC : No
    Format settings, ReFrames : 2 frames
    Format settings, GOP : N=1
    Codec ID : V_MPEG4/ISO/AVC
    Duration : 21mn 12s
    Bit rate : 3 304 Kbps
    Width : 1 280 pixels
    Height : 720 pixels
    Display aspect ratio : 16:9
    Frame rate mode : Constant
    Frame rate : 23.976 fps
    Color space : YUV
    Chroma subsampling : 4:2:0
    Bit depth : 8 bits
    Scan type : Progressive
    Bits/(Pixel*Frame) : 0.150
    Stream size : 501 MiB (83%)
    Title : Original
    Language : English
    Default : No
    Forced : No
    Color primaries : BT.709
    Transfer characteristics : BT.709
    Matrix coefficients : BT.709
    Audio #1
    ID : 2
    Format : AC-3
    Format/Info : Audio Coding 3
    Mode extension : CM (complete main)
    Format settings, Endianness : Big
    Codec ID : A_AC3
    Duration : 21mn 12s
    Bit rate mode : Constant
    Bit rate : 192 Kbps
    Channel(s) : 2 channels
    Channel positions : Front: L R
    Sampling rate : 48.0 KHz
    Bit depth : 16 bits
    Compression mode : Lossy
    Stream size : 29.1 MiB (5%)
    Title : 2x2
    Language : Russian
    Default : Yes
    Forced : No
    Audio #2
    ID : 3
    Format : AC-3
    Format/Info : Audio Coding 3
    Mode extension : CM (complete main)
    Format settings, Endianness : Big
    Codec ID : A_AC3
    Duration : 21mn 12s
    Bit rate mode : Constant
    Bit rate : 384 Kbps
    Channel(s) : 6 channels
    Channel positions : Front: L C R, Side: L R, LFE
    Sampling rate : 48.0 KHz
    Bit depth : 16 bits
    Compression mode : Lossy
    Stream size : 58.2 MiB (10%)
    Title : Original
    Language : English
    Default : No
    Forced : No
    Text
    ID : 4
    Format : UTF-8
    Codec ID : S_TEXT/UTF8
    Codec ID/Info : UTF-8 Plain Text
    Title : Original
    Language : English
    Default : No
    Forced : No
    -ссылка на альтернативные раздачи
    [www.cybertorrent.ru].t2439.torrent 
    Торрент: Зарегистрирован [ 2018-02-16 11:35 ] · 5ADF3599499E09B7C2240BDE866503F4B0708E67

    Скачать .torrent

    Скачать

    71 KB

    Статус: проверено
    Скачан: 0 раз
    Размер: 13,82 GB
  • Профиль [ЛС]
    Показать сообщения:    

    Текущее время: 16-Авг 13:32

    Часовой пояс: UTC ± 0



    Вы не можете начинать темы
    Вы не можете отвечать на сообщения
    Вы не можете редактировать свои сообщения
    Вы не можете удалять свои сообщения
    Вы не можете голосовать в опросах
    Вы не можете прикреплять файлы к сообщениям
    Вы можете скачивать файлы
    Torrents24.ru открытый BitTorrent Torrents24.pl открытый BitTorrent CyberTorrent.ru открытый BitTorrent BtList.ru рейтинг BitTorrent трекеров Яндекс.Метрика