Статистика раздачи
Размер:  7,91 GB   |    Зарегистрирован:  9 месяцев 1 день   |    Скачан:  0 раз

Полного источника не было: Никогда

 
   
 
 

irkutsk ®

Пол:
Не указан
Стаж:
9 месяцев 2 дня
Сообщений:
175

-Южный Парк / South ParkСезон 19, Серии 01-10-- Год выпуска: 2015
Страна: США
Жанр: комедия, мультсериал
Продолжительность: ~ 00:20:00 x 10
Перевод 1: Профессиональный двухголосый закадровый [Paramount Comedy] (1-10 серии)
Перевод 2: Профессиональный двухголосый закадровый [Кубик в Кубе] (1-10 серии)
Перевод 3: Одноголосый закадровый [L0cDoG] (1-10 серии)
Перевод 4: Профессиональный многоголосый закадровый [Jaskier] (1-10 серии)
Перевод 5: Профессиональный многоголосый закадровый [IdeaFilm] (1-10 серии)
Субтитры 1: русские, Stevvie (1-10 серии)
Субтитры 2: русские, Анастасия Кисиленко (1-2 серии)
Субтитры 3: английские (1-10 серии)-Режиссёр: Мэтт Стоун, Трей Паркер-Описание: Южный Парк / South Park — американский мультсериал, созданный Мэттом Стоуном и Треем Паркером. Иногда название переводится также как «Саут-Парк» или «Саус-Парк». Выпускается кабельным телеканалом Comedy Central с 1997 года. Основу сюжета составляют приключения четырёх мальчиков и их друзей, живущих в маленьком городке Саут-Парк, штат Колорадо. Сериал высмеивает недостатки американской культуры и текущие мировые события, а также подвергает критике множество глубоких убеждений и табу посредством пародии и чёрного юмора. «Южный Парк» выходит поздно вечером и позиционируется как мультфильм для взрослых.-[ Все раздачи сериала ] | [ Сэмпл ]-Качество: WEB-DL 720p
Формат: MKV
Видео: 1280x718, 23.976 fps, AVC (H264), ~4 Mbps
Аудио 1: AC3, 48 kHz, 2 ch, 192 kbps [Русский, Paramount Comedy]
Аудио 2: AC3, 48 kHz, 2 ch, 192 kbps [Русский, Кубик в Кубе]
Аудио 3: AC3, 48 kHz, 2 ch, 192 kbps [Русский, L0cDoG]
Аудио 4: AC3, 48 kHz, 2 ch, 192 kbps [Русский, Jaskier]
Аудио 5: AC3, 48 kHz, 2 ch, 192 kbps [Русский, IdeaFilm]
Аудио 6: AAC, 48 kHz, 2 ch, 160 kbps [Английский]
-

MI

General
Unique ID : 220425730011145838898320815001765430034 (0xA5D4738E91CBE9299A6653FDF0604312)
Complete name : South.Park.s19e01.720p.WEB-DL.Rus.Eng.Sub.mkv
Format : Matroska
Format version : Version 4 / Version 2
File size : 813 MiB
Duration : 22mn 9s
Overall bit rate : 5 129 Kbps
Movie name : South Park - Season 19 Episode 01 - Stunning and Brave / Ослепительная и отважная
Encoded date : UTC 2015-09-27 11:28:25
Writing application : mkvmerge v7.7.0 ('Six Voices') 32bit built on Feb 28 2015 23:23:00
Writing library : libebml v1.3.1 + libmatroska v1.4.2
_STATISTICS_WRITING_APP : mkvmerge v7.7.0 ('Six Voices') 32bit built on Feb 28 2015 23:23:00
_STATISTICS_WRITING_DATE_UTC : 2015-09-27 11:28:25
_STATISTICS_TAGS : BPS DURATION NUMBER_OF_FRAMES NUMBER_OF_BYTES
DURATION : 00:22:09.152000000
NUMBER_OF_FRAMES : 41536
NUMBER_OF_BYTES : 31899648
Video
ID : 1
Format : AVC
Format/Info : Advanced Video Codec
Format profile : High@L3.1
Format settings, CABAC : No
Format settings, ReFrames : 2 frames
Codec ID : V_MPEG4/ISO/AVC
Duration : 22mn 9s
Width : 1 280 pixels
Height : 718 pixels
Display aspect ratio : 16:9
Frame rate mode : Constant
Frame rate : 23.976 fps
Color space : YUV
Chroma subsampling : 4:2:0
Bit depth : 8 bits
Scan type : Progressive
Title : South Park - S19E01
Language : English
Default : Yes
Forced : No
Color primaries : BT.709
Transfer characteristics : BT.709
Matrix coefficients : BT.709
Audio #1
ID : 2
Format : AC-3
Format/Info : Audio Coding 3
Mode extension : CM (complete main)
Format settings, Endianness : Big
Codec ID : A_AC3
Duration : 22mn 9s
Bit rate mode : Constant
Bit rate : 192 Kbps
Channel(s) : 2 channels
Channel positions : Front: L R
Sampling rate : 48.0 KHz
Bit depth : 16 bits
Compression mode : Lossy
Stream size : 30.4 MiB (4%)
Title : DVO Paramount Comedy
Language : Russian
Default : Yes
Forced : No
Audio #2
ID : 3
Format : AC-3
Format/Info : Audio Coding 3
Mode extension : CM (complete main)
Format settings, Endianness : Big
Codec ID : A_AC3
Duration : 22mn 9s
Bit rate mode : Constant
Bit rate : 192 Kbps
Channel(s) : 2 channels
Channel positions : Front: L R
Sampling rate : 48.0 KHz
Bit depth : 16 bits
Compression mode : Lossy
Stream size : 30.4 MiB (4%)
Title : DVO Кубик в Кубе
Language : Russian
Default : No
Forced : No
Audio #3
ID : 4
Format : AC-3
Format/Info : Audio Coding 3
Mode extension : CM (complete main)
Format settings, Endianness : Big
Codec ID : A_AC3
Duration : 22mn 9s
Bit rate mode : Constant
Bit rate : 192 Kbps
Channel(s) : 2 channels
Channel positions : Front: L R
Sampling rate : 48.0 KHz
Bit depth : 16 bits
Compression mode : Lossy
Stream size : 30.4 MiB (4%)
Title : VO L0cDoG
Language : Russian
Default : No
Forced : No
Audio #4
ID : 5
Format : AC-3
Format/Info : Audio Coding 3
Mode extension : CM (complete main)
Format settings, Endianness : Big
Codec ID : A_AC3
Duration : 22mn 9s
Bit rate mode : Constant
Bit rate : 192 Kbps
Channel(s) : 2 channels
Channel positions : Front: L R
Sampling rate : 48.0 KHz
Bit depth : 16 bits
Compression mode : Lossy
Stream size : 30.4 MiB (4%)
Title : MVO Jaskier
Language : Russian
Default : No
Forced : No
Audio #5
ID : 6
Format : AC-3
Format/Info : Audio Coding 3
Mode extension : CM (complete main)
Format settings, Endianness : Big
Codec ID : A_AC3
Duration : 22mn 9s
Bit rate mode : Constant
Bit rate : 192 Kbps
Channel(s) : 2 channels
Channel positions : Front: L R
Sampling rate : 48.0 KHz
Bit depth : 16 bits
Compression mode : Lossy
Stream size : 30.4 MiB (4%)
Title : MVO IdeaFilm
Language : Russian
Default : No
Forced : No
Audio #6
ID : 7
Format : AAC
Format/Info : Advanced Audio Codec
Format profile : LC
Codec ID : A_AAC
Duration : 22mn 9s
Channel(s) : 2 channels
Channel positions : Front: L R
Sampling rate : 48.0 KHz
Compression mode : Lossy
Title : English
Language : English
Default : No
Forced : No
Text #1
ID : 8
Format : UTF-8
Codec ID : S_TEXT/UTF8
Codec ID/Info : UTF-8 Plain Text
Title : Анастасия Кисиленко (Medveditsa)
Language : Russian
Default : No
Forced : No
Text #2
ID : 9
Format : UTF-8
Codec ID : S_TEXT/UTF8
Codec ID/Info : UTF-8 Plain Text
Title : Stevvie
Language : Russian
Default : No
Forced : No
Text #3
ID : 10
Format : UTF-8
Codec ID : S_TEXT/UTF8
Codec ID/Info : UTF-8 Plain Text
Language : English
Default : No
Forced : No
-
-

Внимание! Раздача ведётся путём добавления новых серий

Внимание! Раздача ведётся путём добавления новых серий; при каждом добавлении создётся новый торрент. Чтобы
начать докачку новой серии, пользователям необходимо сделать следующее:
  • Остановить скачивание.
  • Удалить старый торрент у себя из клиента (старые серии удалять не надо).
  • Скачать новый торрент и запустить его у себя в клиенте вместо старого, при этом указать клиенту путь в старую папку куда и
    должно происходить скачивание новых серий.
    Ваш клиент при этом должен произвести хеширование (проверку) старой папки (если не производит сам - помогите ему сделать
    это), и будет докачивать только те серии которых у вас ещё нет. Старые серии при этом не удаляются, а продолжают раздаваться!
    Eсли вы уже удалили старые серии, то предотвратить повторную закачку старых серий можно, отжав галочку в соответсвующих местах при
    запуске нового торрента. По возможности, желательно не удалять старые серии как можно дольше чтобы релизёр не столько продолжал
    раздавать старые серии, а смог сконцентрироваться на новых.
  • -
    Торрент обновлен. Добавлена озвучка Кубик в Кубе для 10 серии
    -
    [www.cybertorrent.ru].t2435.torrent 
    Торрент: Зарегистрирован [ 2018-02-16 11:35 ] · 36C40CAF5268AD530B185026F602255D0D75DFCA

    Скачать .torrent

    Скачать

    41 KB

    Статус: проверено
    Скачан: 0 раз
    Размер: 7,91 GB
    Профиль [ЛС]
    Показать сообщения:    

    Текущее время: 18-Ноя 00:01

    Часовой пояс: UTC ± 0



    Вы не можете начинать темы
    Вы не можете отвечать на сообщения
    Вы не можете редактировать свои сообщения
    Вы не можете удалять свои сообщения
    Вы не можете голосовать в опросах
    Вы не можете прикреплять файлы к сообщениям
    Вы можете скачивать файлы
    Torrents24.ru открытый BitTorrent Torrents24.pl открытый BitTorrent CyberTorrent.ru открытый BitTorrent BtList.ru рейтинг BitTorrent трекеров Яндекс.Метрика