Статистика раздачи
Размер:  97 MB   |    Зарегистрирован:  4 месяца 2 дня   |    Скачан:  0 раз

Полного источника не было: Никогда

 
   
 
 

soda ®

Пол:
Не указан
Стаж:
4 месяца 3 дня
Сообщений:
143

Занавес
Maku- Страна: Япония
Год выпуска: 2014 г.
Жанр: драма, сюрреализм
Тип: Movie
Продолжительность: 00:05:10Режиссер: Ёрико Мицушири / Yoriko MizushiriОписание: Занавес традиционного японского комедийного театра Kyōgen поднимается, и перед нами разворачивается история двоих, испытывающих противоречивые эмоции друг к другу: тревогу, влечение, потребность в привязанности и эмоциональной безопасности.
Доп. информация: Arte HD
Номинация на "Золотой медведь" Berlin International Film Festival 2015 за лучшую анимацию.
Качество: HDTVRip 720p
Тип релиза: Без хардсаба
Формат видео: MKV
Релиз/Автор рипа: ralf124c41+
Совместимость с бытовыми плеерами: Да
Видео: AVC (H.264), 1280х720 (16:9), 25 fps, ~2400 kbps avg, 8 bit
Аудио: AC3, 2 ch, 48 kHz, 192 kbps Язык музыкальное сопровождение

Подробные тех. данные

Общее
Уникальный идентификатор : 208607833233235978216394284215340874468 (0x9CF0684291ABFAECB589E36B928FBAE4)
Полное имя : F:\My Torrents 3\[apreder]MINI_MOVIES_10\[apreder]MM_Maku(2014)HDTVRip.mkv
Формат : Matroska
Версия формата : Version 2
Размер файла : 96,5 Мбайт
Продолжительность : 5 м. 10 с.
Общий поток : 2604 Кбит/сек
Дата кодирования : UTC 2015-09-19 08:53:17
Программа кодирования : mkvmerge v8.3.0 ('Over the Horizon') 64bit
Библиотека кодирования : libebml v1.3.1 + libmatroska v1.4.2
Attachements : cover.png / cover_small.png
TITLE : Maku
IMDB : tt4433674
DATE_RELEASED : 2014-00-00
LAW_RATING : 16+
GENRE : Animation, Short, Fantasy
DIRECTOR : Yoriko Mizushiri
KEYWORDS : rutracker.org
Видео
Идентификатор : 1
Формат : AVC
Формат/Информация : Advanced Video Codec
Профиль формата : High@L4.1
Параметр CABAC формата : Да
Параметр ReFrames формата : 9 кадров
Идентификатор кодека : V_MPEG4/ISO/AVC
Продолжительность : 5 м. 10 с.
Битрейт : 2400 Кбит/сек
Ширина : 1280 пикселей
Высота : 720 пикселей
Соотношение сторон : 16:9
Режим частоты кадров : Постоянный
Частота кадров : 25,000 кадров/сек
Цветовое пространство : YUV
Субдискретизация насыщенности : 4:2:0
Битовая глубина : 8 бит
Тип развёртки : Прогрессивная
Бит/(Пиксели*Кадры) : 0.104
Размер потока : 87,5 Мбайт (91%)
Библиотека кодирования : x264 core 148 r2597 e86f3a1
Настройки программы : cabac=1 / ref=9 / deblock=1:-1:-1 / analyse=0x3:0x133 / me=umh / subme=10 / psy=1 / psy_rd=1.00:0.15 / mixed_ref=1 / me_range=24 / chroma_me=1 / trellis=2 / 8x8dct=1 / cqm=0 / deadzone=21,11 / fast_pskip=1 / chroma_qp_offset=-3 / threads=6 / lookahead_threads=1 / sliced_threads=0 / nr=0 / decimate=1 / interlaced=0 / bluray_compat=0 / constrained_intra=0 / bframes=9 / b_pyramid=2 / b_adapt=1 / b_bias=0 / direct=3 / weightb=1 / open_gop=0 / weightp=2 / keyint=250 / keyint_min=25 / scenecut=40 / intra_refresh=0 / rc_lookahead=60 / rc=2pass / mbtree=1 / bitrate=2400 / ratetol=1.0 / qcomp=0.60 / qpmin=0 / qpmax=69 / qpstep=4 / cplxblur=20.0 / qblur=0.5 / vbv_maxrate=62500 / vbv_bufsize=78125 / nal_hrd=none / filler=0 / ip_ratio=1.40 / aq=1:1.00
Default : Да
Forced : Нет
Аудио
Идентификатор : 2
Формат : AC-3
Формат/Информация : Audio Coding 3
Расширение режима : CM (complete main)
Параметр Endianness формата : Big
Идентификатор кодека : A_AC3
Продолжительность : 5 м. 10 с.
Вид битрейта : Постоянный
Битрейт : 192 Кбит/сек
Каналы : 2 канала
Расположение каналов : Front: L R
Частота : 48,0 КГц
Метод сжатия : С потерями
Размер потока : 7,12 Мбайт (7%)
Default : Да
Forced : Нет

Скриншоты

Резервные скриншоты

- [2'618]
[www.cybertorrent.ru].t2430.torrent 
Торрент: Зарегистрирован [ 2018-02-16 11:35 ] · 576811564D9B6351CA6A98C8AB045BA6F1DEEE16

Скачать .torrent

Скачать

16 KB

Статус: проверено
Скачан: 0 раз
Размер: 97 MB
Профиль [ЛС]
Показать сообщения:    

Текущее время: 18-Июн 20:49

Часовой пояс: UTC ± 0



Вы не можете начинать темы
Вы не можете отвечать на сообщения
Вы не можете редактировать свои сообщения
Вы не можете удалять свои сообщения
Вы не можете голосовать в опросах
Вы не можете прикреплять файлы к сообщениям
Вы можете скачивать файлы