Статистика раздачи
Размер:  18,27 GB   |    Зарегистрирован:  9 месяцев 24 дня   |    Скачан:  0 раз

Полного источника не было: Никогда

Личеров:  1  [  0 KB/s  ]  
 
   
 
 

0H0 ®

Пол:
Не указан
Стаж:
9 месяцев 25 дней
Сообщений:
156

Трансформеры. Роботы под прикрытием / Transformers: Robots in Disguise
Страна: США
Жанр: Мультсериал, детский, семейный, приключения
Продолжительность: 00:21:40
Год выпуска: 2015
Перевод: Профессиональный (дублированный)
Русские субтитры: нет
Режиссёр: Скутер Тидвелл / Scooter Tidwell
Роли озвучивали: Уилл Фридел, Даррен Крисс, Констанс Зиммер, Хари Пэйтон, Митчелл Уитфилд, Стюарт Аллан, Тед МакГинли, Эрик Бауза, Роджер Крэйг Смит, Питер Каллен
Описание: Команда автоботов-новичков под предводительством Бамблби готовится к обороне Земли. Земле снова угрожают десептиконы, сбежавшие из рухнувшего на планету корабля-тюрьмы. Бамблби вызывают на Землю для подготовки группы автоботов-защитников. Он собирает команду неопытных трансформеров, в которую входит непослушный «плохиш» Сайдсвайп, кадет элитной гвардии Стронгарм, надменный динобот Гримлок и очень активный миникун Фиксит. Каждый из ботов обладает уникальными способностями, но совершенно не умеет работать в команде. Поэтому Бамблби становится для них не просто лидером, но также мудрым наставником, способным обучать новичков и разрешать конфликты внутри группы. Если подготовка пройдет успешно, Бамблби и команда смогут противостоять опасному врагу и выполнить порученную им миссию — защитить нашу планету.

Список серий

01. Пилот. Часть 1
02. Пилот. Часть 2
03. Командная работа
04. Больше, чем кажется
05. Быть лидером
06. Приказ Каспиго
07. Коллекционеры
08. Настоящие цвета
09. Один в поле не воин
10. Враг под землёй
11. Выследить Бамблби
12. Сезон охоты
13. Как в тумане
14. Окольными путями
15. Даже роботам бывает страшно
16. Не в своём теле
17. Пропавший Мини-Бот
18. Подводные неприятности
19. Чемпион
20. Тёмная сторона Фиксита
21. Захват
22. Такие разные диноботы
23. Виндблейд
24. Призраки и самозванцы
25. Поле боя. Часть 1
26. Поле боя. Часть 2
Ссылка на предыдущие и альтернативные раздачи
Семпл
Семпл серии 9, 19, 20
Качество: WEB-DL 720p
Формат: MKV
Видео: h264, 1280*720, 23.976fps, 4100 kbps
Аудио: AC3, rus, 48000 Hz, 2ch, 192 kbps (кроме серий 9, 19, 20 - mp3, rus, 44100 Hz, 2ch, 128 kbps)
Аудио 2: AC3, eng, 48000 Hz, 6ch, 384 kbps
Субтитры: английские

Подробные технические данные

General
Format : Matroska
Format version : Version 2
File size : 733 MiB
Duration : 21mn 34s
Overall bit rate : 4 748 Kbps
Movie name : ReJIiZ CasStudio & MediaClub
Encoded date : UTC 2015-09-04 19:58:01
Writing application : mkvmerge v8.1.0 ('Psychedelic Postcard') 64bit
Writing library : libebml v1.3.1 + libmatroska v1.4.2
DURATION : 00:21:11.237000000
NUMBER_OF_FRAMES : 310
NUMBER_OF_BYTES : 9562
_STATISTICS_WRITING_APP : mkvmerge v8.1.0 ('Psychedelic Postcard') 64bit
_STATISTICS_WRITING_DATE_UTC : 2015-09-04 19:58:01
_STATISTICS_TAGS : BPS DURATION NUMBER_OF_FRAMES NUMBER_OF_BYTES
Video
ID : 1
Format : AVC
Format/Info : Advanced Video Codec
Format profile : High@L3.1
Format settings, CABAC : No
Format settings, ReFrames : 2 frames
Codec ID : V_MPEG4/ISO/AVC
Duration : 21mn 34s
Bit rate : 4 078 Kbps
Width : 1 280 pixels
Height : 720 pixels
Display aspect ratio : 16:9
Frame rate mode : Constant
Frame rate : 23.976 fps
Color space : YUV
Chroma subsampling : 4:2:0
Bit depth : 8 bits
Scan type : Progressive
Bits/(Pixel*Frame) : 0.185
Stream size : 629 MiB (86%)
Title : H.264
Default : Yes
Forced : No
Color primaries : BT.709
Transfer characteristics : BT.709
Matrix coefficients : BT.709
Audio #1
ID : 2
Format : AC-3
Format/Info : Audio Coding 3
Mode extension : CM (complete main)
Format settings, Endianness : Big
Codec ID : A_AC3
Duration : 21mn 34s
Bit rate mode : Constant
Bit rate : 192 Kbps
Channel count : 2 channels
Channel positions : Front: L R
Sampling rate : 48.0 KHz
Bit depth : 16 bits
Compression mode : Lossy
Stream size : 29.6 MiB (4%)
Language : Russian
Default : Yes
Forced : Yes
Audio #2
ID : 3
Format : AC-3
Format/Info : Audio Coding 3
Mode extension : CM (complete main)
Format settings, Endianness : Big
Codec ID : A_AC3
Duration : 21mn 34s
Bit rate mode : Constant
Bit rate : 384 Kbps
Channel count : 6 channels
Channel positions : Front: L C R, Side: L R, LFE
Sampling rate : 48.0 KHz
Bit depth : 16 bits
Compression mode : Lossy
Stream size : 59.3 MiB (8%)
Title : DD5.1
Language : English
Default : No
Forced : No
Text
ID : 4
Format : UTF-8
Codec ID : S_TEXT/UTF8
Codec ID/Info : UTF-8 Plain Text
Default : Yes
Forced : No

Скриншоты

Звук к сериям 9, 19, 20 взят с torrent-tv и кабан.тв
[www.cybertorrent.ru].t2426.torrent 
Торрент: Зарегистрирован [ 2018-02-16 11:35 ] · 6FCD0CC46E467DE4EC20D0F088CFC379D0D17C85

Скачать .torrent

Скачать

49 KB

Статус: проверено
Скачан: 0 раз
Размер: 18,27 GB
Профиль [ЛС]
Показать сообщения:    

Текущее время: 12-Дек 17:30

Часовой пояс: UTC ± 0



Вы не можете начинать темы
Вы не можете отвечать на сообщения
Вы не можете редактировать свои сообщения
Вы не можете удалять свои сообщения
Вы не можете голосовать в опросах
Вы не можете прикреплять файлы к сообщениям
Вы можете скачивать файлы
Torrents24.ru открытый BitTorrent Torrents24.pl открытый BitTorrent CyberTorrent.ru открытый BitTorrent BtList.ru рейтинг BitTorrent трекеров Яндекс.Метрика