Статистика раздачи
Размер:  9,78 GB   |    Зарегистрирован:  4 месяца 6 дней   |    Скачан:  0 раз

Полного источника не было: Никогда

 
   
 
 

0H0 ®

Пол:
Не указан
Стаж:
4 месяца 7 дней
Сообщений:
154

Трансформеры: Боты-спасатели/ Transformers: Rescue Bots2 Сезон- Год выпуска: 2014
Страна: США, Канада
Жанр: мультфильм, боевик, приключения, семейный
Перевод: Профессиональный (дублированный) по заказу ЗАО «Первый канал. Всемирная сеть»
Продолжительность: 00:21:00
Русские субтитры: нет
Режиссёр: Фрэнк Мольери / Frank Molieri-Описание: Боты-спасатели — это дружная команда автоботов, призванная помогать людям ...
Герои мультсериала — четверо автоботов, которые прибыли на Землю недавно, поэтому не знакомы с людскими правилами. Оптимус Прайм поручил им важную миссию — разузнать всё о людях, подружиться с ними и защищать их от разных земных бед и опасностей.
Чейз, Хитвейв, Блэйдс и Болдер работают на технически оснащенном острове, выдавая себя за обычные транспортные средства. Здесь автоботы объединяются с семьей специалистов быстрого реагирования, среди которых есть шеф полиции, пожарник, пилот вертолета и инженер. Их общая задача — поддерживать безопасность на острове, спасать его жителей во время стихийных бедствий и техногенных катастроф. Выполняя эту миссию, боты-спасатели научатся командной работе и станут настоящими героями.

Описание серий

1 серия. Дорожное путешествие
2 серия. Небесный лес
3 серия. Один навсегда
4 серия. Верхушка айсберга
5 серия. Виртуальная катастрофа
6 серия. Зачарованные
7 серия. Боты Прескотта
8 серия. Виноваты Гремлины
9 серия. Накорми зверя
10 серия. Что скрывает земля
11 серия. Ввысь
12 серия. Космические боты
13 серия. Остров
14 серия. Бдительный город
15 серия. Парная работа
16 серия. В поисках гнезда
17 серия. Боты и грабители
18 серия. Собака-спасатель
19 серия. Перемены
20 серия. Всадник
21 серия. Опасности садоводства
22 серия. Шеф Вудроу
23 серия. Третий не лишний
24 серия. Экспресс «Гриффин Рок»
25 серия. Преступный союз
26 серия. Возвращение героев
-Доп. информация:

Релиз группы:
Трансляция спутникового канала:
-Качество видео: DVB
Формат видео: MPEG-PS
Видео: MPEG2 Video, 720x576 (4:3), 25 fps, 2500 kbps
Аудио: MPEG Audiо, 2 сh, 48 kHz, 192 kbps-Все раздачи мультсериала-

MediaInfo

eneral
Complete name : D:\Трансформеры. Боты-спасатели. (2 сезон) (2014)_DVB by SLuMeP\01с. Трансформеры. Боты-спасатели. Road Trip.mpg
Format : MPEG-PS
File size : 397 MiB
Duration : 21mn 6s
Overall bit rate mode : Variable
Overall bit rate : 2 627 Kbps
Video
ID : 224 (0xE0)
Format : MPEG Video
Format version : Version 2
Format profile : Main@Main
Format settings, BVOP : Yes
Format settings, Matrix : Custom
Format settings, GOP : Variable
Format settings, picture st : Frame
Duration : 21mn 6s
Bit rate mode : Variable
Bit rate : 2 383 Kbps
Maximum bit rate : 5 000 Kbps
Width : 720 pixels
Height : 576 pixels
Display aspect ratio : 4:3
Frame rate : 25.000 fps
Standard : PAL
Color space : YUV
Chroma subsampling : 4:2:0
Bit depth : 8 bits
Scan type : Interlaced
Scan order : Top Field First
Compression mode : Lossy
Bits/(Pixel*Frame) : 0.230
Time code of first frame : 00:00:00:00
Time code source : Group of pictures header
GOP, Open/Closed : Open
Stream size : 360 MiB (91%)
GOP, Open/Closed of first f : Closed
Audio
ID : 192 (0xC0)
Format : MPEG Audio
Format version : Version 1
Format profile : Layer 2
Duration : 21mn 6s
Bit rate mode : Constant
Bit rate : 192 Kbps
Channel(s) : 2 channels
Sampling rate : 48.0 KHz
Compression mode : Lossy
Stream size : 29.0 MiB (7%)

Скриншоты


Внимание! Раздача ведётся путём добавления новых серий

Чтобы начать докачку новой серии, пользователям необходимо сделать следующее:
(1)остановить скачивание,
(2) удалить старый торрент у себя из клиента (старые серии удалять не надо),
(3) скачать новый торрент и запустить его у себя в клиенте вместо старого, при этом указать клиенту путь в старую папку куда и должно происходить скачивание новых серий.
Ваш клиент при этом должен произвести хеширование (проверку) старой папки (если не производит сам - помогите ему сделать это), и будет докачивать только те серии которых у вас ещё нет. Старые серии при этом не удаляются, а продолжают раздаваться!
Eсли вы уже удалили старые серии, то предотвратить повторную закачку старых серий можно, отжав галочку в соответсвующих местах при запуске нового торрента. По возможности, желательно не удалять старые серии как можно дольше чтобы релизёр не столько продолжал раздавать старые серии, а смог сконцентрироваться на новых.
-Transformers Opening Titles: Rescue Bots - Music Video (Soundtrack)
http://www.youtube.com/watch?v=kAT3jeYj-fE
Transformers Opening Titles: Rescue Bots♫♫♫
A routine patrol with four Bots in stasis,
Years later awoke in the strangest of places.
Earth was their home now and in addition,
Optimus Prime gave them this mission:
Learn from the humans, serve and protect,
Live in their world, earn their respect.
A family of heroes will be your allies,
To others remain robots in disguise.’
♫♫♫
Rescue Bots, roll to the rescue,
Humans in need, heroes indeed,
Rescue Bots, roll to the rescue,
Rescue Bots.
With Cody to guide them and show them the way,
Rescue Bots will be saving the day.
Rescue Bots, roll to the rescue,
Rescue Bots.
[www.cybertorrent.ru].t2408.torrent 
Торрент: Зарегистрирован [ 2018-02-16 11:35 ] · 71A7CAF9F2E03B11CAD11F0FC3BC6E027DAD552C

Скачать .torrent

Скачать

52 KB

Статус: проверено
Скачан: 0 раз
Размер: 9,78 GB
Профиль [ЛС]
Показать сообщения:    

Текущее время: 23-Июн 07:48

Часовой пояс: UTC ± 0



Вы не можете начинать темы
Вы не можете отвечать на сообщения
Вы не можете редактировать свои сообщения
Вы не можете удалять свои сообщения
Вы не можете голосовать в опросах
Вы не можете прикреплять файлы к сообщениям
Вы можете скачивать файлы