Статистика раздачи
Размер:  1,68 GB   |    Зарегистрирован:  6 месяцев 5 дней   |    Скачан:  1 раз

Полного источника не было: 1 месяц 7 дней

 
   
 
 

NINJA ®

Пол:
Не указан
Стаж:
6 месяцев 6 дней
Сообщений:
84

Первый снег зимы / Первый зимний снег / The First Snow of Winter Страна: Великобритания
Жанр: Мультфильм, короткометражный, семейный
Продолжительность: 00:27:46
Год выпуска: 1998
Перевод: Профессиональный (дублированный) (Селена Интернешнл)
Русские субтитры: нет
Режиссёр: Грэхэм Ральф / Graham Ralph-Описание: У утенка Шона большая проблема. В этом году утки вынуждены пропустить ежегодный перелет на юг. Шона ожидает тяжелое испытание - долгая, холодная и снежная зима. Но ему не дадут замерзнуть новые приятели - водяная крыса и мышь-полевка. Шон приспособится к новым для него погодным условиям и научится ценить дружбу!-Доп. материалы: Видеоклип - песня из мультфильма
Качество: DVD5 (Custom)
Формат: DVD-video
Видео: MPEG-2 PAL, 720x576, 25fps, ~7000 Kb/s
Аудио 1: AC3, 48khz, 2ch, 192 kb/s, Русский
Аудио 2: AC3, 48khz, 2ch, 192 kb/s, English
Аудио 3: AC3, 48khz, 2ch, 192 kb/s, Nederlandse
Субтитры: отсутствуют
Релиз: Благодарности
Blind E.T. - за русскую аудиодорожку
xfiles - за работу со звуком.

DVDInfo

Title: NEWDVD
Size: 1.68 Gb ( 1 760 284,00 KBytes ) - DVD-5
Enabled regions: 2
VTS_01 :
Play Length: 00:27:48+00:03:18
Video: PAL 4:3 (720x576) VBR
Audio:
Russian (Dolby AC3, 2 ch)
English (Dolby AC3, 2 ch)
Nederlands (Dolby AC3, 2 ch)
* Menus Information *
VIDEO_TS Menu
Video:
PAL 4:3 (720x576) VBR
Audio:
Not specified (Dolby AC3, 8 ch)
English Language Unit :
Title Menu
VTS_01 Menu
Video:
PAL 4:3 (720x576) VBR
English Language Unit :
Root Menu
Audio Menu
Chapter (PTT) Menu

MediaInfo

Общее
Полное имя : E:\MULTFILMS\FIRST SNOW\NEWDVD\VTS_01_1.VOB
Формат : MPEG-PS
Размер файла : 1024 Мбайт
Продолжительность : 18 м.
Режим общего битрейта : Переменный
Общий поток : 7737 Кбит/сек
Видео
Идентификатор : 224 (0xE0)
Формат : MPEG Video
Версия формата : Version 2
Профиль формата : Main@Main
Параметр BVOP формата : Да
Параметр матрицы формата : По умолчанию
Параметр GOP формата : M=5, N=26
Продолжительность : 18 м.
Вид битрейта : Переменный
Битрейт : 7007 Кбит/сек
Максимальный битрейт : 9000 Кбит/сек
Ширина : 720 пикселей
Высота : 576 пикселей
Соотношение сторон : 4:3
Частота кадров : 25,000 кадров/сек
Стандарт вещания : PAL
Цветовое пространство : YUV
Субдискретизация насыщенности : 4:2:0
Битовая глубина : 8 бит
Тип развёртки : Чересстрочная
Порядок развёртки : Верхнее поле первое
Метод сжатия : С потерями
Бит/(Пиксели*Кадры) : 0.676
Временной код первого кадра : 10:00:00:00
Оригинал временного кода : Group of pictures header
Размер потока : 927 Мбайт (91%)
Основные цвета : BT.601 PAL
Характеристики трансфера : BT.470 System B, BT.470 System G
Коэффициенты матрицы : BT.601
Аудио #1
Идентификатор : 189 (0xBD)-128 (0x80)
Формат : AC-3
Формат/Информация : Audio Coding 3
Расширение режима : CM (complete main)
Параметр Endianness формата : Big
Режим смешивания : DVD-Video
Продолжительность : 18 м.
Вид битрейта : Постоянный
Битрейт : 192 Кбит/сек
Каналы : 2 канала
Расположение каналов : Front: L R
Частота : 48,0 КГц
Битовая глубина : 16 бит
Метод сжатия : С потерями
Размер потока : 25,4 Мбайт (2%)
Аудио #2
Идентификатор : 189 (0xBD)-129 (0x81)
Формат : AC-3
Формат/Информация : Audio Coding 3
Расширение режима : CM (complete main)
Параметр Endianness формата : Big
Режим смешивания : DVD-Video
Продолжительность : 18 м.
Вид битрейта : Постоянный
Битрейт : 192 Кбит/сек
Каналы : 2 канала
Расположение каналов : Front: L R
Частота : 48,0 КГц
Битовая глубина : 16 бит
Метод сжатия : С потерями
Размер потока : 25,4 Мбайт (2%)
Аудио #3
Идентификатор : 189 (0xBD)-130 (0x82)
Формат : AC-3
Формат/Информация : Audio Coding 3
Расширение режима : CM (complete main)
Параметр Endianness формата : Big
Режим смешивания : DVD-Video
Продолжительность : 18 м.
Вид битрейта : Постоянный
Битрейт : 192 Кбит/сек
Каналы : 2 канала
Расположение каналов : Front: L R
Частота : 48,0 КГц
Битовая глубина : 16 бит
Метод сжатия : С потерями
Размер потока : 25,4 Мбайт (2%)
Меню

Скриншоты меню

Скриншоты


Скриншоты доп.материалов

Информация по сборке

Диск собран из голландского DVD.
Используемый софт:
BeSweet+BeLight (Распаковка звука в формат wav)
Adobe Audition (Синхронизация аудио)
Minnetonka Audio (Конвертация звука в формат Dolby AC3)
PgcDemux (Разборка диска)
MuxMan (Сборка диска)
Adobe Photoshop (Редактирование пунктов меню)
DVDSubEdit (Редактирование подсветки кнопок меню)
DVDRemakePro (Реавторинг DVD)
[www.cybertorrent.ru].t2399.torrent 
Торрент: Зарегистрирован [ 2018-02-16 11:35 ] · 3ACF549ECCC1A6E137242223D6F23CE6A4A6D41E

Скачать .torrent

Скачать

18 KB

Статус: проверено
Скачан: 1 раз
Размер: 1,68 GB
Профиль [ЛС]
Показать сообщения:    

Текущее время: 21-Авг 13:27

Часовой пояс: UTC ± 0



Вы не можете начинать темы
Вы не можете отвечать на сообщения
Вы не можете редактировать свои сообщения
Вы не можете удалять свои сообщения
Вы не можете голосовать в опросах
Вы не можете прикреплять файлы к сообщениям
Вы можете скачивать файлы
Torrents24.ru открытый BitTorrent Torrents24.pl открытый BitTorrent CyberTorrent.ru открытый BitTorrent BtList.ru рейтинг BitTorrent трекеров Яндекс.Метрика