BitTorrent клиенты



Мистер Вампир / Mr. Vampire / Geung si sin sang (Рикки Лау / Ricky Lau) [1985, Гонконг, ужасы, комедия, боевые искусства, BDRip 720p] VO (Акира) + Sub Eng + Original Chi

Ответить на тему
 
Автор Сообщение

Keeper ®

Пол: Не указан

Стаж: 1 год

Сообщений: 499

Создавать темы 07-Фев-2018 20:45

[Цитировать]

Мистер Вампир / Mr. Vampire / Geung si sin sang
Страна: Гонконг
Студия: Bo Ho Film Company Ltd., Golden Harvest Company, Toho-Towa
Жанр: ужасы, комедия, боевые искусства
Год выпуска: 1985
Продолжительность: 01:37:23
Перевод: Одноголосый закадровый Акира
Субтитры: английские
Оригинальная аудиодорожка: китайский
Режиссер: Рикки Лау / Ricky Lau
В ролях: Чинг-Йинг Лам, Чин Сиу Хоу, Рики Хуи, Мун Ли, Билли Лау, Сиу-Фанг Вонг, Юэнь Ва, Ха Хуанг, Энтони Чан, Ма У, Чау Сэнг Лау, Пак-Квон Хо, Рэймонд Тин, Мо Юэнь, Уэллсон Чин, Пэнг Юн Чунг и др.
Описание: Когда таоистский священник (Лам Чинг-Йинг) и двое его подручных (Чин Сиу-Хо и Рикки Хуи) соглашаются на повторное погребение отца местного богача, они даже не подозревают, что почти в буквальном смысле копают себе могилу. Выкопанный труп оказывается вампиром, который вполне естественно оживает, в первую же ночь превращая в вампира и своего отпрыска. Таким образом, отважной троице приходится разбираться аж с двумя вампирами сразу, и как назло все идет совсем не так, как хотелось - дополнительные палки в колеса им ставит местный полицейский (Билли Лау) и девушка-призрак (Полин Вонг), положившая глаз на героя Чин Сиу-Хо.
II Сэмпл II IMDB II
Релиз группа:

Тип релиза: BDRip 720p
Контейнер: MKV
Видео: AVC / 1280x690 / 1.85:1 / 23.976fps / 14000Kbps / High@L4.1
Аудио 1: AC3 / 48.0 KHz / 6ch. / 384kbps / Rus / VO / Акира
Аудио 2: DTS / 48.0 KHz / 6ch / 1509kbps / 16bit / Chi
Формат субтитров: softsub (SRT)

MediaInfo

Общее
Уникальный идентификатор : 218281415173143706639339044470811743039 (0xA43778AC4336C2BEB968FF829CA7533F)
Полное имя : D:\_Torrent\HD\Mr.Vampire.1985.BDRip.720p_by_vedigo.mkv
Формат : Matroska
Версия формата : Version 4 / Version 2
Размер файла : 10,8 Гбайт
Продолжительность : 1 ч. 37 м.
Общий поток : 15,9 Мбит/сек
Название фильма : Mr.Vampire.1985.BDRip.720p_by_vedigo
Дата кодирования : UTC 2016-10-10 11:54:08
Программа кодирования : mkvmerge v9.4.2 ('So High') 64bit
Библиотека кодирования : libebml v1.3.4 + libmatroska v1.4.5
Видео
Идентификатор : 1
Формат : AVC
Формат/Информация : Advanced Video Codec
Профиль формата : High@L4.1
Параметр CABAC формата : Да
Параметр ReFrames формата : 9 кадров
Идентификатор кодека : V_MPEG4/ISO/AVC
Продолжительность : 1 ч. 37 м.
Битрейт : 14,0 Мбит/сек
Ширина : 1280 пикселей
Высота : 690 пикселей
Соотношение сторон : 1,85:1
Режим частоты кадров : Постоянный
Частота кадров : 23,976 (24000/1001) кадра/сек
Цветовое пространство : YUV
Субдискретизация насыщенности : 4:2:0
Битовая глубина : 8 бит
Тип развёртки : Прогрессивная
Бит/(Пиксели*Кадры) : 0.661
Размер потока : 9,52 Гбайт (88%)
Заголовок : Mr.Vampire.1985.BDRip.720p_by_vedigo
Библиотека кодирования : x264 core 148 r2721 72d53ab
Настройки программы : cabac=1 / ref=9 / deblock=1:-3:-3 / analyse=0x3:0x133 / me=umh / subme=11 / psy=1 / psy_rd=1.00:0.10 / mixed_ref=1 / me_range=48 / chroma_me=1 / trellis=2 / 8x8dct=1 / cqm=0 / deadzone=21,11 / fast_pskip=0 / chroma_qp_offset=-3 / threads=12 / lookahead_threads=3 / sliced_threads=0 / nr=0 / decimate=1 / interlaced=0 / bluray_compat=0 / constrained_intra=0 / bframes=12 / b_pyramid=2 / b_adapt=2 / b_bias=0 / direct=3 / weightb=1 / open_gop=0 / weightp=2 / keyint=250 / keyint_min=23 / scenecut=40 / intra_refresh=0 / rc_lookahead=40 / rc=2pass / mbtree=0 / bitrate=14000 / ratetol=1.0 / qcomp=0.60 / qpmin=0 / qpmax=69 / qpstep=4 / cplxblur=20.0 / qblur=0.5 / vbv_maxrate=50000 / vbv_bufsize=62500 / nal_hrd=none / filler=0 / ip_ratio=1.40 / pb_ratio=1.30 / aq=1:0.80
Default : Да
Forced : Нет
Аудио #1
Идентификатор : 2
Формат : AC-3
Формат/Информация : Audio Coding 3
Расширение режима : CM (complete main)
Параметр Endianness формата : Big
Идентификатор кодека : A_AC3
Продолжительность : 1 ч. 37 м.
Вид битрейта : Постоянный
Битрейт : 384 Кбит/сек
Каналы : 6 каналов
Расположение каналов : Front: L C R, Side: L R, LFE
Частота : 48,0 КГц
Частота кадров : 31,250 кадров/сек (1536 spf)
Метод сжатия : С потерями
Размер потока : 268 Мбайт (2%)
Заголовок : VO @ Акира
Язык : Russian
Default : Да
Forced : Нет
Аудио #2
Идентификатор : 3
Формат : DTS
Формат/Информация : Digital Theater Systems
Режим : 16
Параметр Endianness формата : Big
Идентификатор кодека : A_DTS
Продолжительность : 1 ч. 37 м.
Вид битрейта : Постоянный
Битрейт : 1509 Кбит/сек
Каналы : 6 каналов
Расположение каналов : Front: L C R, Side: L R, LFE
Частота : 48,0 КГц
Частота кадров : 93,750 кадра/сек (512 spf)
Битовая глубина : 16 бит
Метод сжатия : С потерями
Размер потока : 1,03 Гбайт (9%)
Заголовок : Original
Язык : Chinese
Default : Нет
Forced : Нет
Текст
Идентификатор : 4
Формат : UTF-8
Идентификатор кодека : S_TEXT/UTF8
Идентификатор кодека/Информация : UTF-8 Plain Text
Продолжительность : 1 ч. 35 м.
Битрейт : 39 бит/сек
Count of elements : 837
Размер потока : 27,9 Кбайт (0%)
Заголовок : Subtitle eng
Язык : English
Default : Нет
Forced : Нет
Меню
00:00:00.000 : en:00:00:00.000
00:01:07.901 : en:00:01:07.901
00:07:08.720 : en:00:07:08.720
00:15:25.800 : en:00:15:25.800
00:21:04.930 : en:00:21:04.930
00:25:55.846 : en:00:25:55.846
00:29:08.121 : en:00:29:08.121
00:33:05.066 : en:00:33:05.066
00:38:50.453 : en:00:38:50.453
00:42:21.664 : en:00:42:21.664
00:47:59.126 : en:00:47:59.126
00:54:05.451 : en:00:54:05.451
01:00:20.367 : en:01:00:20.367
01:06:12.552 : en:01:06:12.552
01:17:34.149 : en:01:17:34.149
01:23:42.100 : en:01:23:42.100
01:27:54.060 : en:01:27:54.060
01:30:37.974 : en:01:30:37.974
01:32:32.839 : en:01:32:32.839
01:35:56.417 : en:01:35:56.417

Скриншоты


Сравнение с исходником





x264 info

x264 [info]: using SAR=1/1
x264 [info]: using cpu capabilities: MMX2 SSE2Fast SSSE3 SSE4.2 AVX
x264 [info]: profile High, level 4.1
x264 [info]: frame I:1094 Avg QP:15.10 size:161430
x264 [info]: frame P:29926 Avg QP:16.97 size: 97896
x264 [info]: frame B:109061 Avg QP:18.98 size: 65266
x264 [info]: consecutive B-frames: 2.2% 2.7% 6.8% 20.3% 16.8% 38.2% 5.4% 2.3% 2.0% 1.1% 1.0% 0.9% 0.4%
x264 [info]: mb I I16..4: 1.6% 82.4% 16.1%
x264 [info]: mb P I16..4: 0.1% 55.4% 4.5% P16..4: 12.0% 16.6% 9.6% 1.2% 0.1% skip: 0.7%
x264 [info]: mb B I16..4: 0.0% 24.1% 0.8% B16..8: 24.3% 24.8% 7.6% direct:16.5% skip: 1.8% L0:39.7% L1:25.4% BI:35.0%
x264 [info]: 8x8 transform intra:94.5% inter:67.4%
x264 [info]: direct mvs spatial:96.6% temporal:3.4%
x264 [info]: coded y,uvDC,uvAC intra: 98.6% 95.8% 80.3% inter: 89.3% 71.7% 9.1%
x264 [info]: i16 v,h,dc,p: 45% 19% 15% 21%
x264 [info]: i8 v,h,dc,ddl,ddr,vr,hd,vl,hu: 13% 9% 11% 8% 12% 13% 8% 13% 13%
x264 [info]: i4 v,h,dc,ddl,ddr,vr,hd,vl,hu: 30% 9% 4% 7% 12% 13% 8% 9% 8%
x264 [info]: i8c dc,h,v,p: 43% 22% 20% 15%
x264 [info]: Weighted P-Frames: Y:10.0% UV:4.1%
x264 [info]: ref P L0: 34.4% 13.8% 17.1% 9.0% 7.5% 5.5% 5.1% 3.5% 3.5% 0.5% 0.0%
x264 [info]: ref B L0: 68.4% 13.7% 6.9% 3.9% 2.9% 2.4% 1.4% 0.4%
x264 [info]: ref B L1: 92.8% 7.2%
x264 [info]: kb/s:13999.68
x264 [total]: encoded 140081 frames, 5.55 fps, 13999.68 kb/s
[Профиль] [ЛС]
Показать сообщения:    
Ответить на тему

Текущее время: 20-Фев 06:56

Часовой пояс: UTC + 3



Вы не можете начинать темы
Вы не можете отвечать на сообщения
Вы не можете редактировать свои сообщения
Вы не можете удалять свои сообщения
Вы не можете голосовать в опросах
Вы не можете прикреплять файлы к сообщениям
Вы можете скачивать файлы