BitTorrent клиенты



Город, в котором меня нет / Bokudake ga inai machi / The Town Where Only I Am Missing / Erased (Юитиро Хиракава / Yuichiro Hirakawa) [2016, Япония, фантастика, триллер, драма, детектив, BDRip 720p] MVO (STEPonee) + Original (Jap) + Sub (Eng, Jap)

Ответить на тему
 
Автор Сообщение

Keeper ®

Пол: Не указан

Стаж: 1 год

Сообщений: 499

Создавать темы 07-Фев-2018 20:45

[Цитировать]

Город, в котором меня нет
Bokudake ga inai machi
The Town Where Only I Am Missing
Erased
Страна: Япония
Жанр: фантастика, триллер, драма, детектив
Год выпуска: 2016
Продолжительность: 02:00:27
Перевод: Любительский (многоголосый закадровый) STEPonee
Субтитры: английские (FURRITSUBS), японские
Оригинальная аудиодорожка: японский
Режиссер: Юитиро Хиракава / Yuichiro Hirakawa
В ролях: Тацуя Фудзивара, Касуми Аримура, Мицухиро Оикава, Юрико Исида, Тэтта Сугимото, Рио Судзуки, Цубаса Накагава, Кэнто Хаяси, Сэйдзи Фукуси, Канна Мори
Описание:
Сатору Фудзинума — малоуспешный художник (мангака), обожающий рисовать мангу. Ему приходится подрабатывать в обычной службе доставки и хранить удивительный секрет своей возможности телепортироваться в то или иное место, где происходит драматическое событие, чтобы предотвратить чью-нибудь смерть или катастрофу. Свой дар молодой человек контролировать не может, и поэтому он не возвращается до тех пор, пока этих происшествий не удается избежать.
Однажды Сатору возвращается на 18 лет назад с целью предотвратить убийства детей, совершённые серийным убийцей. Также молодому человеку нужно спасти свою мать, которая столкнулась лицом к лицу с этим чудовищным преступником, что стоило ей жизни.- Релиз группы: -Тип релиза: BDRip 720p (рип от panyping@HDS)
Контейнер: MKV
Видео: AVC (x264), 1280x688 (1.85:1) at 23,976 fps, 3930 Кbps, 0.186 bpp
Аудио 1: AC3; 192 Kbps; CBR; 2 ch; 48 khz | MVO - STEPonee |
Аудио 2: DTS; 1536 Kbps; CBR; 6 ch; 48 khz | Японский |
Формат субтитров: softsub (SSA/ASS); PGS

Скриншоты || x264 Info || MediaInfo || Notes

MediaInfo

Код:General
Unique ID : 194638122824647688247375020504417507228 (0x926DF05C3107830F8AB5219163C7179C)
Complete name : Город, в котором меня нет.2016.MVO.720p.BluRay.x264-HDS.mkv
Format : Matroska
Format version : Version 4 / Version 2
File size : 4.83 GiB
Duration : 2h 0mn
Overall bit rate : 5 745 Kbps
Movie name : The Town Where Only I Am Missing [2016] [720p] MVO
Encoded date : UTC 2016-10-07 20:42:33
Writing application : mkvmerge v7.8.0 ('River Man') 32bit built on Mar 27 2015 16:18:02
Writing library : libebml v1.3.1 + libmatroska v1.4.2
Attachements : RawengulkBold.otf / Lucida Sans Regular.ttf / CaviarDreams_Bold.ttf / hc-poo5.ttf / euphemia.ttf
Video
ID : 1
Format : AVC
Format/Info : Advanced Video Codec
Format profile : High@L4.1
Format settings, CABAC : Yes
Format settings, ReFrames : 9 frames
Codec ID : V_MPEG4/ISO/AVC
Duration : 2h 0mn
Bit rate : 3 930 Kbps
Width : 1 280 pixels
Height : 688 pixels
Display aspect ratio : 1.85:1
Frame rate mode : Constant
Frame rate : 23.976 fps
Color space : YUV
Chroma subsampling : 4:2:0
Bit depth : 8 bits
Scan type : Progressive
Bits/(Pixel*Frame) : 0.186
Stream size : 3.31 GiB (68%)
Title : profile.php?mode=viewprofile&u=22488948 || RG Orient Extreme Films
Writing library : x264 core 148 r2699+6+41 29a38aa Yuuki [8-bit@4:2:0 X86_64][GCC 5.3.0]
Encoding settings : cabac=1 / ref=9 / deblock=1:-3:-3 / analyse=0x3:0x113 / me=umh / subme=11 / psy=1 / fade_compensate=0.00 / psy_rd=1.00:0.05 / mixed_ref=1 / me_range=32 / chroma_me=1 / trellis=2 / 8x8dct=1 / cqm=0 / deadzone=21,11 / fast_pskip=0 / chroma_qp_offset=-2 / threads=32 / lookahead_threads=5 / sliced_threads=0 / nr=0 / decimate=1 / interlaced=0 / bluray_compat=0 / constrained_intra=0 / fgo=0 / bframes=8 / b_pyramid=2 / b_adapt=2 / b_bias=0 / direct=3 / weightb=1 / open_gop=0 / weightp=2 / keyint=250 / keyint_min=23 / scenecut=40 / intra_refresh=0 / rc=crf / mbtree=0 / crf=17.2000 / qcomp=0.60 / qpmin=0:0:0 / qpmax=69:69:69 / qpstep=4 / ip_ratio=1.40 / pb_ratio=1.30 / aq=3:0.90
Language : Japanese
Default : Yes
Forced : No
Audio #1
ID : 2
Format : AC-3
Format/Info : Audio Coding 3
Mode extension : CM (complete main)
Format settings, Endianness : Big
Codec ID : A_AC3
Duration : 2h 0mn
Bit rate mode : Constant
Bit rate : 192 Kbps
Channel(s) : 2 channels
Channel positions : Front: L R
Sampling rate : 48.0 KHz
Bit depth : 16 bits
Compression mode : Lossy
Stream size : 165 MiB (3%)
Title : MVO [STEPonee]
Language : Russian
Default : Yes
Forced : No
Audio #2
ID : 3
Format : DTS
Format/Info : Digital Theater Systems
Mode : 16
Format settings, Endianness : Big
Codec ID : A_DTS
Duration : 2h 0mn
Bit rate mode : Constant
Bit rate : 1 509 Kbps
Channel(s) : 6 channels
Channel positions : Front: L C R, Side: L R, LFE
Sampling rate : 48.0 KHz
Bit depth : 24 bits
Compression mode : Lossy
Stream size : 1.27 GiB (26%)
Language : Japanese
Default : No
Forced : No
Text #1
ID : 4
Format : ASS
Codec ID : S_TEXT/ASS
Codec ID/Info : Advanced Sub Station Alpha
Compression mode : Lossless
Title : fansub by FURRITSUBS
Language : English
Default : No
Forced : No
Text #2
ID : 5
Format : PGS
Muxing mode : zlib
Codec ID : S_HDMV/PGS
Codec ID/Info : The same subtitle format used on BDs/HD-DVDs
Language : Japanese
Default : No
Forced : No
Menu
00:00:00.000 : en:
00:11:19.136 : en:
00:23:28.365 : en:
00:33:46.858 : en:
00:40:57.663 : en:
00:49:22.960 : en:
01:00:13.401 : en:
01:08:12.088 : en:
01:19:46.573 : en:
01:30:41.561 : en:
01:39:35.719 : en:
01:47:37.951 : en:

x264 Info

[box=#F5F5F5,#F5F5F5]x264 [info]: frame I:1325 Avg QP:13.97 size:160294[/box]x264 [info]: frame P:37842 Avg QP:15.42 size: 47644x264 [info]: frame B:134113 Avg QP:17.65 size: 11949x264 [info]: consecutive B-frames: 2.2% 2.4% 7.7% 18.3% 23.3% 36.4% 6.3% 1.8% 1.5%
Цитата:[box=#F5F5F5,#F5F5F5] STEPonee - над озвучкой работали:
роли озвучивали: Натиа Макаридзе, Илья Хайко, Олег Кондрашов, Наталия Репникова, Наталья Скребнева;
перевод: ФСГ 'MAGICIANS'; звуковик: Натиа Макаридзе; тайминг: Анна Кудинова;
[/box]
[Профиль] [ЛС]
Показать сообщения:    
Ответить на тему

Текущее время: 21-Фев 23:53

Часовой пояс: UTC + 3



Вы не можете начинать темы
Вы не можете отвечать на сообщения
Вы не можете редактировать свои сообщения
Вы не можете удалять свои сообщения
Вы не можете голосовать в опросах
Вы не можете прикреплять файлы к сообщениям
Вы можете скачивать файлы