BitTorrent клиенты



Мужчина и женщина / Nam gwa yeo / Namgwa yeo / A Man and a Woman (Ли Юн-ги / Lee Yoon Ki) [2016, Южная Корея, драма, BDRip 720p] DVO (STEPonee) + Original (Kor) + Sub (Eng, Kor)

Ответить на тему
 
Автор Сообщение

Keeper ®

Пол: Не указан

Стаж: 1 год

Сообщений: 499

Создавать темы 07-Фев-2018 20:45

[Цитировать]

Мужчина и женщина / Nam gwa yeo / A Man and a Woman / Namgwa yeo Страна: Южная Корея
Жанр: драма
Год выпуска: 2016
Продолжительность: 01:55:11
Перевод: Любительский (двухголосый закадровый) STEPonee
Субтитры: английские, корейские
Оригинальная аудиодорожка: корейский
Режиссер: Ли Юн-ги / Lee Yoon Ki
В ролях: Чон До-ён, Кон Ю, Пак Пён-ын, Ли Ми-со, Пак Мин-джи, Yoon Se-Ah, Веера В. Вило, Marko Wilskman, Ли Джи-хун
Описание:
Сан Мин и Ги Хон привезли своих детей в лагерь в Финляндии. Метель вынудила их заночевать в гостинице, пробудив взаимный интерес. На следующий день их пути разошлись. Они расстались, даже не узнав имён друг друга. Несколько месяцев спустя Сан Мин неожиданно встречает Ги Хона на работе. Он женат, она замужем. Но смогут ли они противостоять своим чувствам друг к другу?
- Релиз группы: -Тип релиза: BDRip 720p (рип от nvtuan86@VietHD)
Контейнер: MKV
Видео: AVC (x264), 1280x506 (2.533:1) at 23,976 fps, 4939 Кbps
Аудио 1: AC3; 192 Kbps; CBR; 2 ch; 48 khz | DVO - STEPonee |
Аудио 2: AC3; 640 Kbps; CBR; 6 ch; 48 khz | Корейский |
Аудио 3: AC3; 192 Kbps; CBR; 2 ch; 48 khz | Корейский | - Commentary
Формат субтитров: softsub (SRT)

Скриншоты || x264 Info || MediaInfo || Notes

MediaInfo

Код:General
Unique ID : 185730917084765631178030168055703443521 (0x8BBA7936107407248E05C49370AC9841)
Complete name : Мужчина и женщина.2016.DVO.720p.BluRay.x264-VietHD.mkv
Format : Matroska
Format version : Version 4 / Version 2
File size : 4.89 GiB
Duration : 1h 55mn
Overall bit rate : 6 084 Kbps
Movie name : A Man and a Woman [2016] DVO
Encoded date : UTC 2016-08-29 21:41:24
Writing application : mkvmerge v7.8.0 ('River Man') 32bit built on Mar 27 2015 16:18:02
Writing library : libebml v1.3.1 + libmatroska v1.4.2
Video
ID : 1
Format : AVC
Format/Info : Advanced Video Codec
Format profile : High@L4.1
Format settings, CABAC : Yes
Format settings, ReFrames : 12 frames
Codec ID : V_MPEG4/ISO/AVC
Duration : 1h 55mn
Bit rate : 4 939 Kbps
Width : 1 280 pixels
Height : 506 pixels
Display aspect ratio : 2.532
Original display aspect ratio : 2.533
Frame rate mode : Constant
Frame rate : 23.976 fps
Color space : YUV
Chroma subsampling : 4:2:0
Bit depth : 8 bits
Scan type : Progressive
Bits/(Pixel*Frame) : 0.318
Stream size : 3.97 GiB (81%)
Title : profile.php?mode=viewprofile&u=22488948 || RG Orient Extreme Films
Writing library : x264 core 148 r2705.16 d50a22e VietHD_Custom_64
Encoding settings : cabac=1 / ref=12 / deblock=1:-3:-3 / analyse=0x3:0x133 / me=umh / subme=10 / psy=1 / fade_compensate=0.00 / psy_rd=1.03:0.00 / mixed_ref=1 / me_range=24 / chroma_me=1 / trellis=2 / 8x8dct=1 / cqm=0 / deadzone=21,11 / fast_pskip=0 / chroma_qp_offset=-2 / threads=12 / lookahead_threads=2 / sliced_threads=0 / nr=0 / decimate=0 / interlaced=0 / bluray_compat=0 / constrained_intra=0 / fgo=0 / bframes=9 / b_pyramid=2 / b_adapt=2 / b_bias=0 / direct=3 / weightb=1 / open_gop=0 / weightp=2 / keyint=250 / keyint_min=23 / scenecut=40 / intra_refresh=0 / rc_lookahead=60 / rc=crf / mbtree=0 / crf=15.7000 / qcomp=0.65 / qpmin=0:0:0 / qpmax=69:69:69 / qpstep=4 / vbv_maxrate=62500 / vbv_bufsize=78125 / crf_max=0.0 / nal_hrd=none / filler=0 / ip_ratio=1.30 / pb_ratio=1.20 / aq=3:0.80 / aq-sensitivity=10.00 / aq-factor=1.00:1.00:1.00 / aq2=0 / aq3=0 / zones=0,447,crf=13/5678,5980,crf=15/15866,22937,crf=15/26830,40775,crf=15/40776,41344,crf=15/43751,46651,crf=15/51457,51620,crf=15/51621,56484,crf=15/63357,69661,crf=15/69972,77609,crf=15/78872,79857,crf=15/89975,101769,crf=15/103540,104519,crf=15/108473,113519,crf=15/124873,130116,crf=15/132000,142428,crf=15
Language : Korean
Default : Yes
Forced : No
Matrix coefficients : BT.709
Color range : Limited
Audio #1
ID : 2
Format : AC-3
Format/Info : Audio Coding 3
Mode extension : CM (complete main)
Format settings, Endianness : Big
Codec ID : A_AC3
Duration : 1h 55mn
Bit rate mode : Constant
Bit rate : 192 Kbps
Channel(s) : 2 channels
Channel positions : Front: L R
Sampling rate : 48.0 KHz
Bit depth : 16 bits
Compression mode : Lossy
Stream size : 158 MiB (3%)
Title : DVO [STEPonee]
Language : Russian
Default : Yes
Forced : No
Audio #2
ID : 3
Format : AC-3
Format/Info : Audio Coding 3
Mode extension : CM (complete main)
Format settings, Endianness : Big
Codec ID : A_AC3
Duration : 1h 55mn
Bit rate mode : Constant
Bit rate : 640 Kbps
Channel(s) : 6 channels
Channel positions : Front: L C R, Side: L R, LFE
Sampling rate : 48.0 KHz
Bit depth : 16 bits
Compression mode : Lossy
Stream size : 527 MiB (11%)
Language : Korean
Default : No
Forced : No
Audio #3
ID : 4
Format : AC-3
Format/Info : Audio Coding 3
Mode extension : CM (complete main)
Format settings, Endianness : Big
Codec ID : A_AC3
Duration : 1h 55mn
Bit rate mode : Constant
Bit rate : 192 Kbps
Channel(s) : 2 channels
Channel positions : Front: L R
Sampling rate : 48.0 KHz
Bit depth : 16 bits
Compression mode : Lossy
Stream size : 158 MiB (3%)
Title : commentary
Language : Korean
Default : No
Forced : No
Text #1
ID : 5
Format : UTF-8
Codec ID : S_TEXT/UTF8
Codec ID/Info : UTF-8 Plain Text
Language : English
Default : No
Forced : No
Text #2
ID : 6
Format : UTF-8
Codec ID : S_TEXT/UTF8
Codec ID/Info : UTF-8 Plain Text
Language : Korean
Default : No
Forced : No
Menu
00:00:00.000 : en:00:00:00.000
00:07:01.463 : en:00:07:01.463
00:15:56.664 : en:00:15:56.664
00:23:13.350 : en:00:23:13.350
00:28:44.431 : en:00:28:44.431
00:37:43.261 : en:00:37:43.261
00:44:18.781 : en:00:44:18.781
00:53:14.733 : en:00:53:14.733
00:58:10.237 : en:00:58:10.237
01:05:09.447 : en:01:05:09.447
01:16:23.245 : en:01:16:23.245
01:25:00.429 : en:01:25:00.429
01:30:26.963 : en:01:30:26.963
01:38:32.740 : en:01:38:32.740
01:46:28.173 : en:01:46:28.173
01:50:10.145 : en:01:50:10.145

x264 Info

[box=#F5F5F5,#F5F5F5]x264 [info]: frame I:1119 Avg QP:11.50 size:112732[/box]x264 [info]: frame P:28756 Avg QP:13.14 size: 52535x264 [info]: frame B:135822 Avg QP:14.02 size: 20114x264 [info]: consecutive B-frames: 1.1% 0.6% 3.3% 5.9% 7.9% 59.9% 5.3% 3.9% 9.6% 2.7%
Цитата:[box=#F5F5F5,#F5F5F5] STEPonee - над озвучкой работали:
роли озвучивали: Наталия Флерко, Андрей Лазарчук; перевод: Александра Мирошникова; звуковик: Андрей Лазарчук;
[/box]
[Профиль] [ЛС]
Показать сообщения:    
Ответить на тему

Текущее время: 23-Фев 00:27

Часовой пояс: UTC + 3



Вы не можете начинать темы
Вы не можете отвечать на сообщения
Вы не можете редактировать свои сообщения
Вы не можете удалять свои сообщения
Вы не можете голосовать в опросах
Вы не можете прикреплять файлы к сообщениям
Вы можете скачивать файлы