BitTorrent клиенты



Жестокий прокурор / Geomsawejeon / A Violent Prosecutor (Ли Иль-хён / Lee Il-hyeong) [2016, Южная Корея, криминал, HDTV 1080p] DVO (Храм Дорам) + Original (Kor) + Sub (Eng)

Ответить на тему
 
Автор Сообщение

Keeper ®

Пол: Не указан

Стаж: 1 год

Сообщений: 499

Создавать темы 07-Фев-2018 20:45

[Цитировать]

Жестокий прокурор / A Violent Prosecutor / Geomsawejeon Страна: Южная Корея
Жанр: криминал
Год выпуска: 2016
Продолжительность: 02:06:26
Перевод: Любительский (двухголосый закадровый) Храм Дорам
Субтитры: английские
Оригинальная аудиодорожка: корейский
Режиссер: Ли Иль-хён / Lee Il-hyeong
В ролях: Хван Джон-мин, Кан Дон-вон, Чу Джин-мо, Ким Бён-ок, Ким Ын-су, Ким Хон-пха, Ким Вон-хэ, Ли Сон-мин, Пак Чи-хван, Пак Сон-ун
Описание:
Прокурор Пён Джэ-ук чтит закон. А так же считает, что если преступник не сознаётся, то надо ему помочь сознаться. В этом деле все средства хороши, и небольшие побои лишними не будут. Вот однажды он так слегка попугал подозреваемого и оставил его на ночь в комнате допросов, а наутро бедолага был уже мёртв. Джэ-ук едет в места не столь отдалённые на 15 лет, но он уверен, что его подставили, и найдет способ восстановить справедливость.
- Релиз группы: -Тип релиза: HDTV 1080p
Контейнер: MKV
Видео: AVC (x264), 1920x1080 (16:9) at 23,976 fps, 5989 Кbps
Аудио 1: AC3; 192 Kbps; CBR; 2 ch; 48 khz | DVO - Храм Дорам |
Аудио 2: AC3; 448 Kbps; CBR; 6 ch; 48 khz | Корейский |
Аудио 3: AC3; 192 Kbps; CBR; 2 ch; 48 khz | Корейский | - Commentary
Формат субтитров: softsub (SRT)

Скриншоты || x264 Info || MediaInfo || Notes

MediaInfo

Код:General
Unique ID : 249495406515419151569835492076216872970 (0xBBB31143B73F10D781CD4C7FF833700A)
Complete name : Жестокий прокурор.2016.DVO.1080p.HDTV.x264.mkv
Format : Matroska
Format version : Version 4 / Version 2
File size : 6.15 GiB
Duration : 2h 6mn
Overall bit rate mode : Variable
Overall bit rate : 6 959 Kbps
Movie name : A Violent Prosecutor [2016] [1080p] DVO
Encoded date : UTC 2016-08-20 11:09:03
Writing application : mkvmerge v7.8.0 ('River Man') 32bit built on Mar 27 2015 16:18:02
Writing library : libebml v1.3.1 + libmatroska v1.4.2
Video
ID : 1
Format : AVC
Format/Info : Advanced Video Codec
Format profile : High@L4.1
Format settings, CABAC : Yes
Format settings, ReFrames : 3 frames
Codec ID : V_MPEG4/ISO/AVC
Duration : 2h 6mn
Bit rate mode : Variable
Bit rate : 5 989 Kbps
Maximum bit rate : 41.0 Mbps
Width : 1 920 pixels
Height : 1 080 pixels
Display aspect ratio : 16:9
Frame rate mode : Constant
Frame rate : 23.976 fps
Color space : YUV
Chroma subsampling : 4:2:0
Bit depth : 8 bits
Scan type : Progressive
Bits/(Pixel*Frame) : 0.120
Stream size : 5.29 GiB (86%)
Title : profile.php?mode=viewprofile&u=22488948 || RG Orient Extreme Films
Language : Korean
Default : Yes
Forced : No
Audio #1
ID : 2
Format : AC-3
Format/Info : Audio Coding 3
Mode extension : CM (complete main)
Format settings, Endianness : Big
Codec ID : A_AC3
Duration : 2h 6mn
Bit rate mode : Constant
Bit rate : 192 Kbps
Channel(s) : 2 channels
Channel positions : Front: L R
Sampling rate : 48.0 KHz
Bit depth : 16 bits
Compression mode : Lossy
Stream size : 174 MiB (3%)
Title : DVO [Храм Дорам]
Language : Russian
Default : Yes
Forced : No
Audio #2
ID : 3
Format : AC-3
Format/Info : Audio Coding 3
Mode extension : CM (complete main)
Format settings, Endianness : Big
Codec ID : A_AC3
Duration : 2h 6mn
Bit rate mode : Constant
Bit rate : 448 Kbps
Channel(s) : 6 channels
Channel positions : Front: L C R, Side: L R, LFE
Sampling rate : 48.0 KHz
Bit depth : 16 bits
Compression mode : Lossy
Stream size : 405 MiB (6%)
Title : 5.1 from DVD
Language : Korean
Default : No
Forced : No
Audio #3
ID : 4
Format : AC-3
Format/Info : Audio Coding 3
Mode extension : CM (complete main)
Format settings, Endianness : Big
Codec ID : A_AC3
Duration : 2h 6mn
Bit rate mode : Constant
Bit rate : 192 Kbps
Channel(s) : 2 channels
Channel positions : Front: L R
Sampling rate : 48.0 KHz
Bit depth : 16 bits
Compression mode : Lossy
Stream size : 174 MiB (3%)
Title : commentary
Language : Korean
Default : No
Forced : No
Text
ID : 5
Format : UTF-8
Codec ID : S_TEXT/UTF8
Codec ID/Info : UTF-8 Plain Text
Title : retail from DVD
Language : English
Default : No
Forced : No
Menu
00:00:04.937 : en:Chapter 1
00:18:10.004 : en:Chapter 2
00:28:32.738 : en:Chapter 3
00:43:13.072 : en:Chapter 4
01:02:27.006 : en:Chapter 5
01:27:13.840 : en:Chapter 6
01:41:29.274 : en:Chapter 7
02:00:17.008 : en:Chapter 8
02:06:17.275 : en:Chapter 9
Цитата:[box=#F5F5F5,#F5F5F5] 5.1 Корейский, главы, комментарии и английские субтитры - взяты с DVD диска[/box]
[Профиль] [ЛС]
Показать сообщения:    
Ответить на тему

Текущее время: 19-Фев 16:19

Часовой пояс: UTC + 3



Вы не можете начинать темы
Вы не можете отвечать на сообщения
Вы не можете редактировать свои сообщения
Вы не можете удалять свои сообщения
Вы не можете голосовать в опросах
Вы не можете прикреплять файлы к сообщениям
Вы можете скачивать файлы