BitTorrent клиенты



Встречи с привидениями / Spooky Encounters / Encounter of the Spooky Kind / Gui da gui (Саммо Хунг Кам-Бо / Sammo Hung Kam-Bo) [1980, Гонконг, ужасы, фэнтези, боевик, комедия, BDRemux 1080p] AVO (С. Кузнецов) + Sub Eng + Original Chi

Ответить на тему
 
Автор Сообщение

Keeper ®

Пол: Не указан

Стаж: 1 год

Сообщений: 499

Создавать темы 07-Фев-2018 20:45

[Цитировать]

Встречи с привидениями / Spooky Encounters / Encounter of the Spooky Kind / Gui da gui
Страна: Гонконг
Студия: Bo Ho Film Company Ltd., Golden Harvest Company
Жанр: ужасы, фэнтези, боевик, комедия
Год выпуска: 1980
Продолжительность: 01:42:41
Перевод: Авторский (одноголосый закадровый) С. Кузнецов
Субтитры: английские
Оригинальная аудиодорожка: китайский
Режиссер: Саммо Хунг Кам-Бо / Sammo Hung Kam-Bo
В ролях: Саммо Хунг Кам-Бо, Дик Вэй, Фэт Чунг, Ланг Чан, Ti-Hong Cheung, Чинг-Йинг Лам, Ву Ма, Сиу-Минг То, По Тай, Suet-Moi Leung и др.
Описание: Саммо Хунг в этом ужастике играет деревенского парня, известного в округе двумя вещами: тем, что его прозвище - "Храбрый Чеунг", и тем, что его жена ему изменяет. Задумав избавиться от назойливого мужа, его жена вместе со своим любовником - богатым горожанином Тамом - отправляет Чеунга на ночь в заброшенный храм, при этом наняв колдуна, способного оживлять мертвых, чтобы он сжил со свету ее супруга. Но Чеунг переживает эту ночь, и начинается комедийно-пугающая круговерть из шаманов, призраков, вампиров и прочей нечисти.
II Сэмпл II IMDB II
Релиз группа:

Тип релиза: BDRemux 1080p
Контейнер: MKV
Видео: AVC / 1920x1080 / 16:9 / 23.976fps / 23600Kbps / High@L4.1
Аудио 1: AC3 / 48.0 KHz / 2ch. / 192kbps / Rus / AVO / С. Кузнецов
Аудио 2: DTS-HD MA / 48.0 KHz / 8ch / 2389kbps / 16bit (DTS Core 48.0 KHz / 6ch / 1509kbps / 16bit) Cantonese
Аудио 3: AC3 / 48.0 KHz / 6ch. / 640kbps / Mandarin
Формат субтитров: softsub (SRT)

MediaInfo

Общее
Уникальный идентификатор : 230057987681210512808174368178772205552 (0xAD138E86A5FC9B5DB2205E66D9795FF0)
Полное имя : D:\_Torrent\HD1\Spooky.Encounters.1980.BDRemux.1080p_by_vedigo.mkv
Формат : Matroska
Версия формата : Version 4 / Version 2
Размер файла : 19,2 Гбайт
Продолжительность : 1 ч. 42 м.
Режим общего битрейта : Переменный
Общий поток : 26,8 Мбит/сек
Название фильма : Spooky.Encounters.1980.BDRemux.1080p_by_vedigo
Дата кодирования : UTC 2016-08-19 22:38:52
Программа кодирования : mkvmerge v9.3.1 ('Mask Machine') 64bit
Библиотека кодирования : libebml v1.3.4 + libmatroska v1.4.5
Видео
Идентификатор : 1
Формат : AVC
Формат/Информация : Advanced Video Codec
Профиль формата : High@L4.1
Параметр CABAC формата : Да
Параметр ReFrames формата : 4 кадра
Параметр GOP формата : M=3, N=24
Идентификатор кодека : V_MPEG4/ISO/AVC
Продолжительность : 1 ч. 42 м.
Вид битрейта : Переменный
Битрейт : 23,6 Мбит/сек
Максимальный битрейт : 30,0 Мбит/сек
Ширина : 1920 пикселей
Высота : 1080 пикселей
Соотношение сторон : 16:9
Режим частоты кадров : Постоянный
Частота кадров : 23,976 (24000/1001) кадра/сек
Стандарт вещания : NTSC
Цветовое пространство : YUV
Субдискретизация насыщенности : 4:2:0
Битовая глубина : 8 бит
Тип развёртки : Прогрессивная
Бит/(Пиксели*Кадры) : 0.474
Размер потока : 16,9 Гбайт (88%)
Заголовок : Spooky.Encounters.1980.BDRemux.1080p_by_vedigo
Default : Да
Forced : Нет
Цветовой диапазон : Limited
Основные цвета : BT.709
Характеристики трансфера : BT.709
Коэффициенты матрицы : BT.709
Аудио #1
Идентификатор : 2
Формат : AC-3
Формат/Информация : Audio Coding 3
Расширение режима : CM (complete main)
Параметр Endianness формата : Big
Идентификатор кодека : A_AC3
Продолжительность : 1 ч. 42 м.
Вид битрейта : Постоянный
Битрейт : 192 Кбит/сек
Каналы : 2 канала
Расположение каналов : Front: L R
Частота : 48,0 КГц
Частота кадров : 31,250 кадров/сек (1536 spf)
Метод сжатия : С потерями
Размер потока : 141 Мбайт (1%)
Заголовок : AVO @ С. Кузнецов
Язык : Russian
Default : Да
Forced : Нет
Аудио #2
Идентификатор : 3
Формат : DTS
Формат/Информация : Digital Theater Systems
Профиль формата : MA / Core
Режим : 16
Параметр Endianness формата : Big
Идентификатор кодека : A_DTS
Продолжительность : 1 ч. 42 м.
Вид битрейта : Переменный / Постоянный
Битрейт : 2389 Кбит/сек / 1509 Кбит/сек
Каналы : 8 каналов / 6 каналов
Расположение каналов : Front: L C R, Side: L R, Back: L R, LFE / Front: L C R, Side: L R, LFE
Частота : 48,0 КГц
Частота кадров : 93,750 кадра/сек (512 spf)
Битовая глубина : 16 бит
Метод сжатия : Без потерь / Lossy
Размер потока : 1,71 Гбайт (9%)
Заголовок : Cantonese
Язык : Chinese
Default : Нет
Forced : Нет
Аудио #3
Идентификатор : 4
Формат : AC-3
Формат/Информация : Audio Coding 3
Расширение режима : CM (complete main)
Параметр Endianness формата : Big
Идентификатор кодека : A_AC3
Продолжительность : 1 ч. 42 м.
Вид битрейта : Постоянный
Битрейт : 640 Кбит/сек
Каналы : 6 каналов
Расположение каналов : Front: L C R, Side: L R, LFE
Частота : 48,0 КГц
Частота кадров : 31,250 кадров/сек (1536 spf)
Метод сжатия : С потерями
Размер потока : 469 Мбайт (2%)
Заголовок : Mandarin
Язык : Chinese
Default : Нет
Forced : Нет
Текст
Идентификатор : 5
Формат : UTF-8
Идентификатор кодека : S_TEXT/UTF8
Идентификатор кодека/Информация : UTF-8 Plain Text
Продолжительность : 1 ч. 41 м.
Битрейт : 23 бит/сек
Count of elements : 772
Размер потока : 17,3 Кбайт (0%)
Заголовок : Subtitle eng
Язык : English
Default : Нет
Forced : Нет
Меню
00:00:00.000 : en:00:00:00.000
00:05:13.146 : en:00:05:13.146
00:12:28.498 : en:00:12:28.498
00:15:41.607 : en:00:15:41.607
00:22:07.952 : en:00:22:07.952
00:27:07.793 : en:00:27:07.793
00:29:58.630 : en:00:29:58.630
00:34:38.660 : en:00:34:38.660
00:39:58.479 : en:00:39:58.479
00:44:37.800 : en:00:44:37.800
00:52:07.583 : en:00:52:07.583
00:56:19.376 : en:00:56:19.376
00:59:25.145 : en:00:59:25.145
01:05:53.616 : en:01:05:53.616
01:10:20.550 : en:01:10:20.550
01:16:14.862 : en:01:16:14.862
01:20:19.815 : en:01:20:19.815
01:25:30.459 : en:01:25:30.459
01:31:49.087 : en:01:31:49.087
01:35:55.291 : en:01:35:55.291

Скриншоты


[Профиль] [ЛС]
Показать сообщения:    
Ответить на тему

Текущее время: 22-Фев 23:58

Часовой пояс: UTC + 3



Вы не можете начинать темы
Вы не можете отвечать на сообщения
Вы не можете редактировать свои сообщения
Вы не можете удалять свои сообщения
Вы не можете голосовать в опросах
Вы не можете прикреплять файлы к сообщениям
Вы можете скачивать файлы