Статистика раздачи
Размер:  9,95 GB   |    Зарегистрирован:  6 месяцев   |    Скачан:  0 раз

Полного источника не было: Никогда

 
   
 
 

DR_KTO ®

Пол:
Не указан
Стаж:
6 месяцев 1 день
Сообщений:
105

Полчаса без родителей 30 выпусков
Дата/Год выпуска: 2008
Страна: Россия
Жанр: телепередача
Продолжительность: 00:26:00
Перевод: Не требуется
Руководитель программы: Михаил Славский
Телеканал: 100 ТВ
Описание: Каждая программа — отдельная история.
Ведущие как настоящие корреспонденты ведут репортажи с места событий, оказываются там, куда в обычной жизни нельзя, а в нашей программе — можно. Ребята примеряют на себя самые разные роли: они пробуют быть спортсменами, пожарными, путешественниками, стилистами, журналистами, художниками и даже космонавтами. Программа в игровой форме, доносит до юных зрителей интересную и полезную информацию из самых разных областей жизни. Освещает правила хорошего тона, вопросы безопасности, новости компьютерных технологий, культурную жизнь — выставки, концерты, театральные спектакли и многое другое!
Доп. информация: В выпуске про аэропорт жуткие потери сигнала.
качество: TVRip
формат: AVI
Видео: XviD, 640х480, 4:3, 1998 Кбит/сек, 25,000 кадров/сек
Аудио: MP3, 128 Кбит/сек, 32,0 КГц, 2 канала

Список выпусков/серий

про Пушкина
день медицинского работника
белые ночи
на даче
в оздоровительном лагере
поход
рыбалка
олимпийские игры
день железнодорожника
день археолога
аэропорт
день кино
школа
Петергоф
запасы на зиму
Хельсинки
Стокгольм
выбор профессии
золотая осень
день рождения программы
театр
8 марта
В гостях у Санта-Клауса
Космос
Лапопусик
Пираты
Сказка
балет
президент
цирк

MediaInfo

Общее
Полное имя : C:\Раздавать\Полчаса без родителей\полчаса 1 (9 июня 2008) про Пушкина.avi
Формат : AVI
Формат/Информация : Audio Video Interleave
Размер файла : 420 Мбайт
Продолжительность : 27 м.
Общий поток : 2136 Кбит/сек
Программа кодирования : Lavf56.1.100
Видео
Идентификатор : 0
Формат : MPEG-4 Visual
Профиль формата : Simple@L1
Параметр BVOP формата : Нет
Параметр QPel формата : Нет
Параметр GMC формата : Без точки перехода
Параметр матрицы формата : Default (H.263)
Идентификатор кодека : XVID
Идентификатор кодека/Подсказка : XviD
Продолжительность : 27 м.
Битрейт : 1998 Кбит/сек
Ширина : 640 пикселей
Высота : 480 пикселей
Соотношение сторон : 4:3
Частота кадров : 25,000 кадров/сек
Цветовое пространство : YUV
Субдискретизация насыщенности : 4:2:0
Битовая глубина : 8 бит
Тип развёртки : Прогрессивная
Метод сжатия : С потерями
Бит/(Пиксели*Кадры) : 0.260
Размер потока : 393 Мбайт (94%)
Библиотека кодирования : Lavc56.0.101
Аудио
Идентификатор : 1
Формат : MPEG Audio
Версия формата : Version 1
Профиль формата : Layer 3
Режим : Joint stereo
Расширение режима : MS Stereo
Идентификатор кодека : 55
Идентификатор кодека/Подсказка : MP3
Продолжительность : 27 м.
Вид битрейта : Постоянный
Битрейт : 128 Кбит/сек
Каналы : 2 канала
Частота : 32,0 КГц
Метод сжатия : С потерями
Размер потока : 25,2 Мбайт (6%)
Выравнивание : Соединение по промежуткам
Продолжительность промежутка : 36 мс. (0,90 видеокадр)
Время предзагрузки промежутка : 108 мс.
[www.cybertorrent.ru].t2337.torrent 
Торрент: Зарегистрирован [ 2018-02-16 11:35 ] · A8FF60E5C8AE1AC356503B9293EFF7AA3E661D14

Скачать .torrent

Скачать

53 KB

Статус: проверено
Скачан: 0 раз
Размер: 9,95 GB
Профиль [ЛС]
Показать сообщения:    

Текущее время: 16-Авг 13:31

Часовой пояс: UTC ± 0



Вы не можете начинать темы
Вы не можете отвечать на сообщения
Вы не можете редактировать свои сообщения
Вы не можете удалять свои сообщения
Вы не можете голосовать в опросах
Вы не можете прикреплять файлы к сообщениям
Вы можете скачивать файлы
Torrents24.ru открытый BitTorrent Torrents24.pl открытый BitTorrent CyberTorrent.ru открытый BitTorrent BtList.ru рейтинг BitTorrent трекеров Яндекс.Метрика