BitTorrent клиенты



Да, мадам! / При исполнении. Полицейские убийцы / Yes, Madam! / Police Assassins / Huang jia shi jie (Кори Юэнь / Corey Yuen) [1985, Гонконг, боевик, комедия, BDRip 720p] AVO (А. Дольский) + DVO + Sub Rus, Eng + Original Chi

Ответить на тему
 
Автор Сообщение

Keeper ®

Пол: Не указан

Стаж: 1 год

Сообщений: 499

Создавать темы 07-Фев-2018 20:45

[Цитировать]

Да, мадам! / При исполнении. Полицейские убийцы / Yes, Madam! / Police Assassins / Huang jia shi jie
Страна: Гонконг
Студия: D & B Films Co. Ltd
Жанр: боевик, комедия
Год выпуска: 1985
Продолжительность: 01:33:20
Перевод 1: Авторский (одноголосый закадровый) А. Дольский
Перевод 2: Профессиональный (двухголосый закадровый)
Субтитры: русские, английские
Оригинальная аудиодорожка: китайский
Режиссер: Кори Юэнь / Corey Yuen
В ролях: Мишель Йео, Синтия Ротрок, Джон Шам, Хой Ман, Цуй Харк, Деннис Чан, Фрут Чан, Чан Сай Тенг, Джин Чен, Чунг Ва, Дэвид Чианг, Лианг Чианг, Кар Лок Чин, Билли Чинг Сау Ят, Фэт Чунг, Майкл Гарри, Пак-Квон Хо, Саммо Хунг Кам-Бо, Ли Ка, Ширли Кван, Вэй Лам, Билли Лау, Чи Хунг Линг, Хон Юэнь Ма, Эдди Мехер, Чи Ми, Хон Кеунг ЭнДжи, Ричард ЭнДжи, Дже Пай, Пэнг Юн Чунг, Вэй Шум, Лианг Таи, По Тай, Джеймс Тьен, Дик Вэй, Мелвин Вонг, Ма Ву, Бун Чай Ят
Описание: Коррумпированный британский агент приезжает в Гонконг с целью продажи мафиозному боссу микроплёнки с фильмом, изобличающим операции его организации. Не сойдясь с агентом в цене босс подсылает к нему киллера, который убивает англичанина, но микрофильм так и не находит. Пленка хранится в паспорте агента, который похитили простые воры. Не зная, что у них на руках такая крупная улика, они ведут свой обычный образ жизни, но за ними охотятся две девушки из полиции, чтобы спасти плёнку, а также мафия, чтобы её уничтожить.
II Сэмпл II IMDB II
Релиз группа:

Доп. информация:
За исходник спасибо Юрай
За профессиональный двухголосый перевод и русские субтитры спасибо duo86
За существование авторского перевода благодарим непосредственно Андрея Дольского и пользователей Юрай, hdrmv12, vedigo
Тип релиза: BDRip 720p
Контейнер: MKV
Видео: AVC / 1280x690 / 1.85:1 / 23.976fps / 6500Kbps / High@L4.1
Аудио 1: AC3 / 48.0 KHz / 6ch. / 640kbps / Rus / AVO / Андрей Дольский
Аудио 2: AC3 / 48.0 KHz / 6ch. / 448kbps / Rus / DVO
Аудио 3: AC3 / 48.0 KHz / 6ch / 640kbps / Cantonese
Формат субтитров: softsub (SRT)

MediaInfo

Общее
Уникальный идентификатор : 177688108462168879036253094009444095494 (0x85AD7C216A65AC7688D874F36921D606)
Полное имя : D:\_Torrent\temp\Yes.Madam.1985.BDRip.720p_by_vedigo.mkv
Формат : Matroska
Версия формата : Version 4 / Version 2
Размер файла : 5,36 Гбайт
Продолжительность : 1 ч. 33 м.
Общий поток : 8228 Кбит/сек
Название фильма : Yes.Madam.1985.BDRip.720p_by_vedigo
Дата кодирования : UTC 2016-07-26 06:29:28
Программа кодирования : mkvmerge v9.3.1 ('Mask Machine') 64bit
Библиотека кодирования : libebml v1.3.4 + libmatroska v1.4.5
Видео
Идентификатор : 1
Формат : AVC
Формат/Информация : Advanced Video Codec
Профиль формата : High@L4.1
Параметр CABAC формата : Да
Параметр ReFrames формата : 9 кадров
Идентификатор кодека : V_MPEG4/ISO/AVC
Продолжительность : 1 ч. 33 м.
Битрейт : 6500 Кбит/сек
Ширина : 1280 пикселей
Высота : 690 пикселей
Соотношение сторон : 1,85:1
Режим частоты кадров : Постоянный
Частота кадров : 23,976 (24000/1001) кадра/сек
Цветовое пространство : YUV
Субдискретизация насыщенности : 4:2:0
Битовая глубина : 8 бит
Тип развёртки : Прогрессивная
Бит/(Пиксели*Кадры) : 0.307
Размер потока : 4,24 Гбайт (79%)
Заголовок : Yes.Madam.1985.BDRip.720p_by_vedigo
Библиотека кодирования : x264 core 148 r2705 3f5ed56
Настройки программы : cabac=1 / ref=9 / deblock=1:-3:-3 / analyse=0x3:0x133 / me=umh / subme=11 / psy=1 / psy_rd=1.00:0.10 / mixed_ref=1 / me_range=48 / chroma_me=1 / trellis=2 / 8x8dct=1 / cqm=0 / deadzone=21,11 / fast_pskip=0 / chroma_qp_offset=-3 / threads=12 / lookahead_threads=2 / sliced_threads=0 / nr=0 / decimate=1 / interlaced=0 / bluray_compat=0 / constrained_intra=0 / bframes=8 / b_pyramid=2 / b_adapt=2 / b_bias=0 / direct=3 / weightb=1 / open_gop=0 / weightp=2 / keyint=250 / keyint_min=23 / scenecut=40 / intra_refresh=0 / rc_lookahead=40 / rc=2pass / mbtree=0 / bitrate=6500 / ratetol=1.0 / qcomp=0.60 / qpmin=0 / qpmax=69 / qpstep=4 / cplxblur=20.0 / qblur=0.5 / vbv_maxrate=50000 / vbv_bufsize=62500 / nal_hrd=none / filler=0 / ip_ratio=1.40 / pb_ratio=1.30 / aq=1:0.90
Default : Да
Forced : Нет
Аудио #1
Идентификатор : 2
Формат : AC-3
Формат/Информация : Audio Coding 3
Расширение режима : CM (complete main)
Параметр Endianness формата : Big
Идентификатор кодека : A_AC3
Продолжительность : 1 ч. 33 м.
Вид битрейта : Постоянный
Битрейт : 640 Кбит/сек
Каналы : 6 каналов
Расположение каналов : Front: L C R, Side: L R, LFE
Частота : 48,0 КГц
Частота кадров : 31,250 кадров/сек (1536 spf)
Метод сжатия : С потерями
Размер потока : 427 Мбайт (8%)
Заголовок : AVO @ А. Дольский
Язык : Russian
Default : Да
Forced : Нет
Аудио #2
Идентификатор : 3
Формат : AC-3
Формат/Информация : Audio Coding 3
Расширение режима : CM (complete main)
Параметр Endianness формата : Big
Идентификатор кодека : A_AC3
Продолжительность : 1 ч. 33 м.
Вид битрейта : Постоянный
Битрейт : 448 Кбит/сек
Каналы : 6 каналов
Расположение каналов : Front: L C R, Side: L R, LFE
Частота : 48,0 КГц
Частота кадров : 31,250 кадров/сек (1536 spf)
Метод сжатия : С потерями
Размер потока : 299 Мбайт (5%)
Заголовок : DVO
Язык : Russian
Default : Нет
Forced : Нет
Аудио #3
Идентификатор : 4
Формат : AC-3
Формат/Информация : Audio Coding 3
Расширение режима : CM (complete main)
Параметр Endianness формата : Big
Идентификатор кодека : A_AC3
Продолжительность : 1 ч. 33 м.
Вид битрейта : Постоянный
Битрейт : 640 Кбит/сек
Каналы : 6 каналов
Расположение каналов : Front: L C R, Side: L R, LFE
Частота : 48,0 КГц
Частота кадров : 31,250 кадров/сек (1536 spf)
Метод сжатия : С потерями
Размер потока : 427 Мбайт (8%)
Заголовок : Cantonese
Язык : Chinese
Default : Нет
Forced : Нет
Текст #1
Идентификатор : 5
Формат : UTF-8
Идентификатор кодека : S_TEXT/UTF8
Идентификатор кодека/Информация : UTF-8 Plain Text
Продолжительность : 1 ч. 31 м.
Битрейт : 84 бит/сек
Count of elements : 1134
Размер потока : 56,1 Кбайт (0%)
Заголовок : Subtitle rus
Язык : Russian
Default : Нет
Forced : Нет
Текст #2
Идентификатор : 6
Формат : UTF-8
Идентификатор кодека : S_TEXT/UTF8
Идентификатор кодека/Информация : UTF-8 Plain Text
Продолжительность : 1 ч. 30 м.
Битрейт : 58 бит/сек
Count of elements : 1468
Размер потока : 38,6 Кбайт (0%)
Заголовок : Subtitle eng
Язык : English
Default : Нет
Forced : Нет
Меню
00:00:00.000 : :Глава 01
00:04:02.742 : :Глава 02
00:09:26.315 : :Глава 03
00:13:22.384 : :Глава 04
00:15:57.915 : :Глава 05
00:20:00.866 : :Глава 06
00:23:35.997 : :Глава 07
00:29:36.065 : :Глава 08
00:32:41.542 : :Глава 09
00:35:51.107 : :Глава 10
00:42:01.852 : :Глава 11
00:44:50.854 : :Глава 12
00:48:40.125 : :Глава 13
00:52:54.212 : :Глава 14
00:57:09.175 : :Глава 15
01:04:32.785 : :Глава 16
01:11:29.660 : :Глава 17
01:15:32.444 : :Глава 18
01:24:24.142 : :Глава 19
01:29:13.639 : :Глава 20

Скриншоты


Сравнение с исходником





x264 info

x264 [info]: using SAR=1/1
x264 [info]: using cpu capabilities: MMX2 SSE2Fast SSSE3 SSE4.2 AVX
x264 [info]: profile High, level 4.1
x264 [info]: frame I:1374 Avg QP:15.57 size:115552
x264 [info]: frame P:34564 Avg QP:17.77 size: 59391
x264 [info]: frame B:98327 Avg QP:19.63 size: 23778
x264 [info]: consecutive B-frames: 4.5% 5.5% 12.7% 25.0% 12.5% 37.4% 2.0% 0.2% 0.2%
x264 [info]: mb I I16..4: 1.7% 87.6% 10.7%
x264 [info]: mb P I16..4: 0.7% 38.1% 2.0% P16..4: 20.8% 27.4% 9.7% 0.8% 0.0% skip: 0.4%
x264 [info]: mb B I16..4: 0.2% 4.4% 0.2% B16..8: 32.6% 29.3% 5.4% direct:10.9% skip:17.0% L0:41.1% L1:37.5% BI:21.4%
x264 [info]: 8x8 transform intra:92.8% inter:64.7%
x264 [info]: direct mvs spatial:99.0% temporal:1.0%
x264 [info]: coded y,uvDC,uvAC intra: 95.4% 97.6% 87.7% inter: 46.3% 42.9% 12.8%
x264 [info]: i16 v,h,dc,p: 60% 12% 3% 25%
x264 [info]: i8 v,h,dc,ddl,ddr,vr,hd,vl,hu: 11% 8% 6% 9% 13% 15% 11% 14% 13%
x264 [info]: i4 v,h,dc,ddl,ddr,vr,hd,vl,hu: 26% 10% 2% 6% 13% 15% 10% 10% 8%
x264 [info]: i8c dc,h,v,p: 50% 17% 17% 17%
x264 [info]: Weighted P-Frames: Y:3.9% UV:0.8%
x264 [info]: ref P L0: 43.5% 12.0% 18.4% 6.8% 6.3% 4.0% 4.1% 2.2% 2.5% 0.2% 0.0%
x264 [info]: ref B L0: 86.6% 6.6% 2.6% 1.5% 1.0% 0.9% 0.6% 0.3%
x264 [info]: ref B L1: 98.7% 1.3%
x264 [info]: kb/s:6499.47
[Профиль] [ЛС]
Показать сообщения:    
Ответить на тему

Текущее время: 20-Фев 06:53

Часовой пояс: UTC + 3



Вы не можете начинать темы
Вы не можете отвечать на сообщения
Вы не можете редактировать свои сообщения
Вы не можете удалять свои сообщения
Вы не можете голосовать в опросах
Вы не можете прикреплять файлы к сообщениям
Вы можете скачивать файлы