Статистика раздачи
Размер:  8,61 GB   |    Зарегистрирован:  6 месяцев 4 дня   |    Скачан:  0 раз

Полного источника не было: Никогда

 
   
 
 

firebird ®

Пол:
Не указан
Стаж:
6 месяцев 5 дней
Сообщений:
323

Покемон: XY - Путешествие по Калосу / Pokemon the Series: XY - Kalos Quest- Страна: Япония / США
Год выпуска: 2015 г.
Жанр: приключения, комедия, фэнтези
Тип: TV
Серии: 45 эпизодов по 21 минуте
Автор оригинала: Тадзири Сатоси
Режиссер оригинала: Юяма Кунихико
Студия: OLM-Релиз подготовлен группой Free Releasers Team "SORA"
  • Сведение звука: Ampho_dub
  • Перевод и озвучивание: SDI Media Russia
  • Роли озвучивали: Иван Калинин, Дмитрий Филимонов, Петр Иващенко, Мария Иващенко, Наталья Терешкова, Лариса Некипелова, Дарья Фролова, Сергей Смирнов, Ольга Шорохова, Ольга Зверева, Наталья Грачева, Андрей Гриневич, Александр Дасевич, Татьяна Шарко-Описание: Путешествие наших героев продолжается, но перед этим их ждёт несколько встреч со знакомыми лицами. Юный ниндзя Санпей бросает Эшу скрытный вызов, Серена пытается воплотить свою мечту поке-деятеля, а злобный Маламар возвращается, чтобы привести в действие новую часть своего злодейского плана! Тем временем робкий Гуми падает на Эша и его друзей на их пути в город Кумарин - место проведения четвёртой битвы Эша за значок и дебюта Серены на ПокеПоказе.-Качество: WEBRip | Формат: AVI | Энкод: Ampho_dub
    Тип релиза: Без хардсаба | Совместимость с бытовыми плеерами: Да
    Видео: XVID (8 bit) 720x408, ~1200 kbps, 29.970 fps
    в составе контейнера:
    Аудио: AC3, 192 kbps, 48 kHz, 2 ch [Russian] Озвучка 1: [DUB] - Многоголосый, Дублированный [SDI Media]

    Список эпизодов

    01. Дорога к исполнительскому партнерству!
    02. Когда свет и тень встречаются!
    03. В воде - Как дома!
    04. Невидимый вызов!
    05. Гонка до дома!
    06. Знакомство со злодейским планом!
    07. Липкое знакомство!
    08. Друг для Гуми!
    09. В борьбе co снежной паникой!
    10. Бой с травяными типами в их зеленом доме!
    11. Под древом преданности!
    12. Дебют в демонстрации покемонов!
    13. Оазис надежды!
    14. Будущее наступило благодаря целеустремленности!
    15. Развилка на дороге! У каждого свой путь!
    16. Элегантное сражение с улыбкой на лице!
    17. Хорошие друзья, отличные тренировки!
    18. Встреча с темной стороной!
    19. Момент истины в Люмиос!
    20. Мега-связь Гарчомпа!
    21. Защищая родные места!
    22. За радугой!
    23. Действительно плохой день!
    24. Устрашающее гостеприимство!
    25. Модная битва!
    26. Обман от фей!
    27. Противники: Сегодня и завтра!
    28. Не летный старт!
    29. Эстафета в небе!
    30. Фиаско на фабрике покешаров!
    31. Демонстрация с зажигательным шармом!
    32. Желание Ротома!
    33. Фестивальный обмен! Фестивальное прощание?
    34. Через снежную гору!
    35. Ответственное задание!
    36. Чиним сломанный дух!
    37. Легендарная фотосессия!
    38. Маленькая няня!
    39. По железной дороге воспоминаний!
    40. Находка в цветах!
    41. Свет! Камера! Пика!
    42. Вдохновение от битвы два на два!
    43. Представление поп-викторина!
    44. Туманная судьба, ясное будущее!
    45. Взгляд в будущее!

    Подробные тех. данные

    General
    Complete name : [FRT Sora] Pokemon XY Kalos Quest [HWP]\[FRT Sora] Pokemon S18 E01 [HWP].avi
    Format : AVI
    Format/Info : Audio Video Interleave
    File size : 207 MiB
    Duration : 21 min
    Overall bit rate : 1 360 kb/s
    Writing application : Lavf57.41.100
    Video
    ID : 0
    Format : MPEG-4 Visual
    Format profile : Advanced Simple@L5
    Format settings, BVOP : 1
    Format settings, QPel : No
    Format settings, GMC : No warppoints
    Format settings, Matrix : Default (H.263)
    Codec ID : XVID
    Codec ID/Hint : XviD
    Duration : 21 min
    Bit rate : 1 156 kb/s
    Width : 720 pixels
    Height : 408 pixels
    Display aspect ratio : 16:9
    Frame rate : 29.970 (30000/1001) FPS
    Color space : YUV
    Chroma subsampling : 4:2:0
    Bit depth : 8 bits
    Scan type : Progressive
    Compression mode : Lossy
    Bits/(Pixel*Frame) : 0.131
    Stream size : 176 MiB (85%)
    Title : 720p
    Writing library : XviD 64
    Audio
    ID : 1
    Format : AC-3
    Format/Info : Audio Coding 3
    Mode extension : CM (complete main)
    Format settings, Endianness : Big
    Codec ID : 2000
    Duration : 21 min
    Bit rate mode : Constant
    Bit rate : 192 kb/s
    Channel(s) : 2 channels
    Channel positions : Front: L R
    Sampling rate : 48.0 kHz
    Frame rate : 31.250 FPS (1536 spf)
    Bit depth : 16 bits
    Compression mode : Lossy
    Stream size : 29.3 MiB (14%)
    Alignment : Aligned on interleaves
    Interleave, duration : 32 ms (0.96 video frame)

    Скриншоты

    Отличия

    WEBRip 1080p - Совместимость с бытовыми плеерами
    [www.cybertorrent.ru].t2329.torrent 
    Торрент: Зарегистрирован [ 2018-02-16 11:35 ] · EEA237244E36628C64A2C0AFB19142C8B41C1888

    Скачать .torrent

    Скачать

    46 KB

    Статус: проверено
    Скачан: 0 раз
    Размер: 8,61 GB
  • Профиль [ЛС]
    Показать сообщения:    

    Текущее время: 20-Авг 12:16

    Часовой пояс: UTC ± 0



    Вы не можете начинать темы
    Вы не можете отвечать на сообщения
    Вы не можете редактировать свои сообщения
    Вы не можете удалять свои сообщения
    Вы не можете голосовать в опросах
    Вы не можете прикреплять файлы к сообщениям
    Вы можете скачивать файлы
    Torrents24.ru открытый BitTorrent Torrents24.pl открытый BitTorrent CyberTorrent.ru открытый BitTorrent BtList.ru рейтинг BitTorrent трекеров Яндекс.Метрика