BitTorrent клиенты



Все мужчины - братья / All Men Are Brothers / Seven Soldiers of Kung Fu / Dong kai ji (Чжан Чэ / Chang Cheh, У Ма / Wu Ma) [1975, Гонконг, боевые искусства, BDRip 720p] AVO (А. Дольский) + Sub Rus, Eng + Eng + Original Chi

Ответить на тему
 
Автор Сообщение

Keeper ®

Пол: Не указан

Стаж: 1 год

Сообщений: 499

Создавать темы 07-Фев-2018 20:46

[Цитировать]

Все мужчины - братья / All Men Are Brothers / Seven Soldiers of Kung Fu / Dong kai ji
Страна: Гонконг
Студия: Shaw Brothers
Жанр: боевые искусства
Год выпуска: 1975
Продолжительность: 01:41:40
Перевод: Авторский (одноголосый закадровый) А. Дольский
Субтитры: русские, английские
Оригинальная аудиодорожка: китайский
Режиссеры: Чжан Чэ / Chang Cheh, У Ма / Wu Ma
В ролях: Дэвид Чианг, Фань Мэйшэн, Чен Куан-Тай, Ван Чжун, Дэнни Ли, Ван Гуанъюй, Юй Фэн, Ти Лун, Чжу Му, Тин Чин, Тун Линь, Боло Йен, Лю Ган, Ван Цин, Чжан Ян и др.
Описание: Экранизация нескольких глав из знаменитого шедевра китайской литературы "Речные заводи", основанного на реальных исторических событиях, продолжение "Речные заводи".
Ян Цин (Дэвид Чианг) добивается аудиенции у императора, чтобы попросить его о помиловании 108 воинов, входящих в незаконную дружину Лян Шан – правитель соглашается объявить им амнистию, если те подавят восстание, поднятое против его власти генералом Фанг Ла. Войска Фан Ла закрепились в неприступной крепости на воде и если Ян Цин и его собратья по оружию хотят занять ее, им необходимо действовать не только снаружи, но и изнутри…
II Сэмпл II IMDB II
Релиз группа:

Доп. информация:
За авторский перевод благодарим непосредственно Андрея Дольского и пользователей Юрай, vedigo
За русские субтитры спасибо Parthorisian
Тип релиза: BDRip 720p
Контейнер: MKV
Видео: AVC / 1280x542 / 2.35:1 / 23.976fps / 5500Kbps / High@L4.1
Аудио 1: AC3 / 48.0 KHz / 6ch. / 640kbps / Rus / AVO / А. Дольский
Аудио 2: AC3 / 48.0 KHz / 6ch. / 640kbps / Eng
Аудио 3: AC3 / 48.0 KHz / 6ch. / 640kbps / Mandarin
Формат субтитров: softsub (SRT)

MediaInfo

Общее
Уникальный идентификатор : 239633155335368141488823203821058314515 (0xB447AABD6BD4A6B79D7BA5C000ACD113)
Полное имя : H:\!_Torrent\temp\All.Men.Are.Brothers.1975.BDRip.720p_by_vedigo.mkv
Формат : Matroska
Версия формата : Version 4 / Version 2
Размер файла : 5,27 Гбайт
Продолжительность : 1 ч. 41 м.
Общий поток : 7422 Кбит/сек
Название фильма : All.Men.Are.Brothers.1975.BDRip.720p_by_vedigo
Дата кодирования : UTC 2016-06-17 07:26:35
Программа кодирования : mkvmerge v9.2.0 ('Photograph') 64bit
Библиотека кодирования : libebml v1.3.3 + libmatroska v1.4.4
Видео
Идентификатор : 1
Формат : AVC
Формат/Информация : Advanced Video Codec
Профиль формата : High@L4.1
Параметр CABAC формата : Да
Параметр ReFrames формата : 12 кадров
Идентификатор кодека : V_MPEG4/ISO/AVC
Продолжительность : 1 ч. 41 м.
Битрейт : 5500 Кбит/сек
Ширина : 1280 пикселей
Высота : 542 пикселя
Соотношение сторон : 2,35:1
Режим частоты кадров : Постоянный
Частота кадров : 23,976 (24000/1001) кадра/сек
Цветовое пространство : YUV
Субдискретизация насыщенности : 4:2:0
Битовая глубина : 8 бит
Тип развёртки : Прогрессивная
Бит/(Пиксели*Кадры) : 0.331
Размер потока : 3,91 Гбайт (74%)
Заголовок : All.Men.Are.Brothers.1975.BDRip.720p_by_vedigo
Библиотека кодирования : x264 core 148 r2692 64f4e24
Настройки программы : cabac=1 / ref=12 / deblock=1:-3:-3 / analyse=0x3:0x133 / me=umh / subme=11 / psy=1 / psy_rd=1.00:0.10 / mixed_ref=1 / me_range=48 / chroma_me=1 / trellis=2 / 8x8dct=1 / cqm=0 / deadzone=21,11 / fast_pskip=0 / chroma_qp_offset=-3 / threads=12 / lookahead_threads=2 / sliced_threads=0 / nr=0 / decimate=1 / interlaced=0 / bluray_compat=0 / constrained_intra=0 / bframes=8 / b_pyramid=2 / b_adapt=2 / b_bias=0 / direct=3 / weightb=1 / open_gop=0 / weightp=2 / keyint=250 / keyint_min=23 / scenecut=40 / intra_refresh=0 / rc_lookahead=40 / rc=2pass / mbtree=0 / bitrate=5500 / ratetol=1.0 / qcomp=0.60 / qpmin=0 / qpmax=69 / qpstep=4 / cplxblur=20.0 / qblur=0.5 / vbv_maxrate=50000 / vbv_bufsize=62500 / nal_hrd=none / filler=0 / ip_ratio=1.40 / pb_ratio=1.30 / aq=1:0.90
Default : Да
Forced : Нет
Аудио #1
Идентификатор : 2
Формат : AC-3
Формат/Информация : Audio Coding 3
Расширение режима : CM (complete main)
Параметр Endianness формата : Big
Идентификатор кодека : A_AC3
Продолжительность : 1 ч. 41 м.
Вид битрейта : Постоянный
Битрейт : 640 Кбит/сек
Каналы : 6 каналов
Расположение каналов : Front: L C R, Side: L R, LFE
Частота : 48,0 КГц
Частота кадров : 31,250 кадров/сек (1536 spf)
Метод сжатия : С потерями
Размер потока : 465 Мбайт (9%)
Заголовок : AVO @ А. Дольский
Язык : Russian
Default : Да
Forced : Нет
Аудио #2
Идентификатор : 3
Формат : AC-3
Формат/Информация : Audio Coding 3
Расширение режима : CM (complete main)
Параметр Endianness формата : Big
Идентификатор кодека : A_AC3
Продолжительность : 1 ч. 41 м.
Вид битрейта : Постоянный
Битрейт : 640 Кбит/сек
Каналы : 6 каналов
Расположение каналов : Front: L C R, Side: L R, LFE
Частота : 48,0 КГц
Частота кадров : 31,250 кадров/сек (1536 spf)
Метод сжатия : С потерями
Размер потока : 465 Мбайт (9%)
Заголовок : Eng
Язык : English
Default : Нет
Forced : Нет
Аудио #3
Идентификатор : 4
Формат : AC-3
Формат/Информация : Audio Coding 3
Расширение режима : CM (complete main)
Параметр Endianness формата : Big
Идентификатор кодека : A_AC3
Продолжительность : 1 ч. 41 м.
Вид битрейта : Постоянный
Битрейт : 640 Кбит/сек
Каналы : 6 каналов
Расположение каналов : Front: L C R, Side: L R, LFE
Частота : 48,0 КГц
Частота кадров : 31,250 кадров/сек (1536 spf)
Метод сжатия : С потерями
Размер потока : 465 Мбайт (9%)
Заголовок : Mandarin
Язык : Chinese
Default : Нет
Forced : Нет
Текст #1
Идентификатор : 5
Формат : UTF-8
Идентификатор кодека : S_TEXT/UTF8
Идентификатор кодека/Информация : UTF-8 Plain Text
Продолжительность : 1 ч. 39 м.
Битрейт : 41 бит/сек
Count of elements : 623
Размер потока : 30,1 Кбайт (0%)
Заголовок : Subtitle rus
Язык : Russian
Default : Нет
Forced : Нет
Текст #2
Идентификатор : 6
Формат : UTF-8
Идентификатор кодека : S_TEXT/UTF8
Идентификатор кодека/Информация : UTF-8 Plain Text
Продолжительность : 1 ч. 39 м.
Битрейт : 24 бит/сек
Count of elements : 621
Размер потока : 17,5 Кбайт (0%)
Заголовок : Subtitle eng
Язык : English
Default : Нет
Forced : Нет
Меню
00:00:00.000 : :Глава 01
00:18:56.335 : :Глава 02
00:29:21.326 : :Глава 03
00:38:38.816 : :Глава 04
00:47:43.861 : :Глава 05
00:56:49.339 : :Глава 06
01:09:51.788 : :Глава 07
01:15:52.548 : :Глава 08
01:30:17.078 : :Глава 09
01:39:54.889 : :Глава 10

Скриншоты


Сравнение с исходником





x264 info

x264 [info]: using SAR=1/1
x264 [info]: using cpu capabilities: MMX2 SSE2Fast SSSE3 SSE4.2 AVX
x264 [info]: profile High, level 4.1
x264 [info]: frame I:959 Avg QP:14.83 size:104672
x264 [info]: frame P:43538 Avg QP:17.18 size: 46145
x264 [info]: frame B:101747 Avg QP:18.88 size: 20478
x264 [info]: consecutive B-frames: 6.6% 8.0% 15.3% 29.0% 22.1% 14.1% 3.0% 0.8% 0.9%
x264 [info]: mb I I16..4: 7.1% 76.1% 16.7%
x264 [info]: mb P I16..4: 1.5% 40.3% 2.8% P16..4: 20.4% 24.4% 8.8% 1.1% 0.1% skip: 0.5%
x264 [info]: mb B I16..4: 0.3% 7.0% 0.4% B16..8: 30.4% 22.9% 4.6% direct:14.4% skip:20.1% L0:41.9% L1:38.4% BI:19.8%
x264 [info]: 8x8 transform intra:89.9% inter:61.4%
x264 [info]: direct mvs spatial:98.3% temporal:1.7%
x264 [info]: coded y,uvDC,uvAC intra: 94.0% 93.0% 74.6% inter: 46.8% 51.5% 10.0%
x264 [info]: i16 v,h,dc,p: 11% 12% 8% 70%
x264 [info]: i8 v,h,dc,ddl,ddr,vr,hd,vl,hu: 9% 10% 7% 9% 12% 12% 13% 13% 16%
x264 [info]: i4 v,h,dc,ddl,ddr,vr,hd,vl,hu: 9% 9% 4% 8% 16% 14% 15% 11% 14%
x264 [info]: i8c dc,h,v,p: 41% 25% 19% 16%
x264 [info]: Weighted P-Frames: Y:5.1% UV:2.2%
x264 [info]: ref P L0: 43.1% 11.8% 16.1% 6.5% 5.5% 3.8% 3.6% 2.1% 2.1% 1.7% 1.7% 1.5% 0.2% 0.0%
x264 [info]: ref B L0: 78.7% 8.8% 4.1% 2.2% 1.6% 1.3% 1.1% 0.8% 0.7% 0.6% 0.3%
x264 [info]: ref B L1: 97.6% 2.4%
x264 [info]: kb/s:5499.37
[Профиль] [ЛС]
Показать сообщения:    
Ответить на тему

Текущее время: 20-Фев 06:50

Часовой пояс: UTC + 3



Вы не можете начинать темы
Вы не можете отвечать на сообщения
Вы не можете редактировать свои сообщения
Вы не можете удалять свои сообщения
Вы не можете голосовать в опросах
Вы не можете прикреплять файлы к сообщениям
Вы можете скачивать файлы