Статистика раздачи
Размер:  4,2 GB   |    Зарегистрирован:  6 месяцев 3 дня   |    Скачан:  0 раз

Полного источника не было: Никогда

 
   
 
 

tvoja_zaja ®

Пол:
Не указан
Стаж:
6 месяцев 4 дня
Сообщений:
126

Том и Джерри: Сказки / Tom and Jerry Tales Страна: США
Жанр: мультфильм, комедия, семейный
Продолжительность: 00:22:00
Год выпуска: 2006
Перевод: Профессиональный (многоголосый) (озвучен по заказу ТНТ, в 2011 году)
Режиссёр: Дуглас МакКарти, Спайк Брандт, Тони Червоне
Роли озвучивали: Дон Браун, Сэм Винсент, Джэйк Д. Смит, Майкл Донован и другие
Описание: Кот Том и мышонок Джерри вызывали смех и покоряли сердца детей и взрослых всего мира на протяжении десятилетий. До сих пор эти два мультгероя-суперзвезды с неизменным успехом поражают зрителей своим мастерством перевоплощения, новыми изобретательными трюками и розыгрышами. Следите за уморительными проделками неуловимой парочки в первоклассной коллекции незабываемых мультяшек! Вы узнаете об изощренных ловушках, которые подстраивают друг другу веселые герои, и отправитесь вместе с ними в незабываемое приключение — лучшее в истории анимационного кино!
Список серий:
2 сезон (2007-2008)
14 More Powers to You / Catch Me Though You Can't / Power Tom
15 Zent Out of Shape / I Dream of Meanie / Which Witch!
16 Don't Bring Your Pet to School Day / Cat Show Catastrophe / The Cat Whisperer with Casper Lombardo
17 Adventures in Penguin Sitting / Cat of Prey / Jungle Love
18 Invasion of the Body Slammers / Monster Con / Over the River and Boo the Woods
19 Xtreme Trouble / A Life Less Guarded / Sasquashed
20 Summer Squashing / League of Cats / Little Big Mouse
21 Bend It Like Thomas / Endless Bummer / Game Set Match
22 The Declaration of Independunce / Kitty Hawked / 24 Karat Kat
23 Hockey Schtick / Snow Braw / Snow Mouse
24 DJ Jerry / Kitty Cat Blues / Flamenco Fiasco
25 You're Lion / Kangadoofus / Monkey Chow
26 Game of Mouse & Cat / Babysitting Blues / Catfish Follies
Качество: DVB
Формат: : MPEG
Видео: MPEG Video, 704x576, 25.000 fps, 3 062 Kbps
Аудио: MPEG Audio, 48.0 KHz, 2 channels, 192 Kbps [Русский]

Релиз:

Подробные технические данные

General
Complete name : H:\Записи\Том и Джерри (ТНТ. 2011)\Том и Джерри Сезон 2 Эпизод 14.mpg
Format : MPEG-PS
File size : 392 MiB
Duration : 21mn 41s
Overall bit rate : 2 526 Kbps
Video
ID : 224 (0xE0)
Format : MPEG Video
Format version : Version 2
Format profile : Main@Main
Format settings, BVOP : Yes
Format settings, Matrix : Default
Duration : 21mn 41s
Bit rate mode : Variable
Bit rate : 2 283 Kbps
Nominal bit rate : 15.0 Mbps
Width : 704 pixels
Height : 576 pixels
Display aspect ratio : 4:3
Frame rate : 25.000 fps
Standard : PAL
Color space : YUV
Chroma subsampling : 4:2:0
Bit depth : 8 bits
Compression mode : Lossy
Bits/(Pixel*Frame) : 0.225
Stream size : 354 MiB (90%)
Audio
ID : 192 (0xC0)
Format : MPEG Audio
Format version : Version 1
Format profile : Layer 2
Mode extension : Intensity Stereo + MS Stereo
Duration : 21mn 41s
Bit rate mode : Constant
Bit rate : 192 Kbps
Channel(s) : 1 channel
Sampling rate : 48.0 KHz
Compression mode : Lossy
Stream size : 29.8 MiB (8%)

Скриншоты

[www.cybertorrent.ru].t2307.torrent 
Торрент: Зарегистрирован [ 2018-02-16 11:35 ] · 4CBF34214A09390EF558E43F23D8964C7D12413F

Скачать .torrent

Скачать

23 KB

Статус: проверено
Скачан: 0 раз
Размер: 4,2 GB
Профиль [ЛС]
Показать сообщения:    

Текущее время: 20-Авг 04:44

Часовой пояс: UTC ± 0



Вы не можете начинать темы
Вы не можете отвечать на сообщения
Вы не можете редактировать свои сообщения
Вы не можете удалять свои сообщения
Вы не можете голосовать в опросах
Вы не можете прикреплять файлы к сообщениям
Вы можете скачивать файлы
Torrents24.ru открытый BitTorrent Torrents24.pl открытый BitTorrent CyberTorrent.ru открытый BitTorrent BtList.ru рейтинг BitTorrent трекеров Яндекс.Метрика