BitTorrent клиенты



Все мужчины - братья / All Men Are Brothers / Seven Soldiers of Kung Fu / Dong kai ji (Чжан Чэ / Chang Cheh, У Ма / Wu Ma) [1975, Гонконг, боевые искусства, BDRip 1080p] AVO (А. Дольский) + Sub Rus, Eng + Eng + Original Chi

Ответить на тему
 
Автор Сообщение

Keeper ®

Пол: Не указан

Стаж: 1 год

Сообщений: 499

Создавать темы 07-Фев-2018 20:46

[Цитировать]

Все мужчины - братья / All Men Are Brothers / Seven Soldiers of Kung Fu / Dong kai ji
Страна: Гонконг
Студия: Shaw Brothers
Жанр: боевые искусства
Год выпуска: 1975
Продолжительность: 01:41:40
Перевод: Авторский (одноголосый закадровый) А. Дольский
Субтитры: русские, английские
Оригинальная аудиодорожка: китайский
Режиссеры: Чжан Чэ / Chang Cheh, У Ма / Wu Ma
В ролях: Дэвид Чианг, Фань Мэйшэн, Чен Куан-Тай, Ван Чжун, Дэнни Ли, Ван Гуанъюй, Юй Фэн, Ти Лун, Чжу Му, Тин Чин, Тун Линь, Боло Йен, Лю Ган, Ван Цин, Чжан Ян и др.
Описание: Экранизация нескольких глав из знаменитого шедевра китайской литературы "Речные заводи", основанного на реальных исторических событиях, продолжение "Речные заводи".
Ян Цин (Дэвид Чианг) добивается аудиенции у императора, чтобы попросить его о помиловании 108 воинов, входящих в незаконную дружину Лян Шан – правитель соглашается объявить им амнистию, если те подавят восстание, поднятое против его власти генералом Фанг Ла. Войска Фан Ла закрепились в неприступной крепости на воде и если Ян Цин и его собратья по оружию хотят занять ее, им необходимо действовать не только снаружи, но и изнутри…
II Сэмпл II IMDB II
Релиз группа:

Доп. информация:
За авторский перевод благодарим непосредственно Андрея Дольского и пользователей Юрай, vedigo
За русские субтитры спасибо Parthorisian
Тип релиза: BDRip 1080p
Контейнер: MKV
Видео: AVC / 1916x812 / 2.35:1 / 23.976fps / 11000Kbps / High@L4.1
Аудио 1: DTS / 48.0 KHz / 6ch. / 1509kbps / 16bit / Rus / AVO / А. Дольский
Аудио 2: DTS / 48.0 KHz / 6ch. / 1509kbps / 16bit / Eng
Аудио 3: DTS / 48.0 KHz / 6ch. / 1509kbps / 16bit / Mandarin
Формат субтитров: softsub (SRT)

MediaInfo

Общее
Уникальный идентификатор : 239454049378441967663652577508696287309 (0xB4252C226C9A90058ED5DA46FD9C684D)
Полное имя : H:\!_Torrent\temp\All.Men.Are.Brothers.1975.BDRip.1080p_by_vedigo.mkv
Формат : Matroska
Версия формата : Version 4 / Version 2
Размер файла : 11,0 Гбайт
Продолжительность : 1 ч. 41 м.
Общий поток : 15,5 Мбит/сек
Название фильма : All.Men.Are.Brothers.1975.BDRip.1080p_by_vedigo
Дата кодирования : UTC 2016-06-17 07:31:06
Программа кодирования : mkvmerge v9.2.0 ('Photograph') 64bit
Библиотека кодирования : libebml v1.3.3 + libmatroska v1.4.4
Видео
Идентификатор : 1
Формат : AVC
Формат/Информация : Advanced Video Codec
Профиль формата : High@L4.1
Параметр CABAC формата : Да
Параметр ReFrames формата : 5 кадров
Идентификатор кодека : V_MPEG4/ISO/AVC
Продолжительность : 1 ч. 41 м.
Битрейт : 11,0 Мбит/сек
Ширина : 1916 пикселей
Высота : 812 пикселей
Соотношение сторон : 2,35:1
Режим частоты кадров : Постоянный
Частота кадров : 23,976 (24000/1001) кадра/сек
Цветовое пространство : YUV
Субдискретизация насыщенности : 4:2:0
Битовая глубина : 8 бит
Тип развёртки : Прогрессивная
Бит/(Пиксели*Кадры) : 0.295
Размер потока : 7,81 Гбайт (71%)
Заголовок : All.Men.Are.Brothers.1975.BDRip.1080p_by_vedigo
Библиотека кодирования : x264 core 148 r2692 64f4e24
Настройки программы : cabac=1 / ref=5 / deblock=1:-3:-3 / analyse=0x3:0x133 / me=umh / subme=11 / psy=1 / psy_rd=1.00:0.10 / mixed_ref=1 / me_range=64 / chroma_me=1 / trellis=2 / 8x8dct=1 / cqm=0 / deadzone=21,11 / fast_pskip=0 / chroma_qp_offset=-3 / threads=12 / lookahead_threads=3 / sliced_threads=0 / nr=0 / decimate=1 / interlaced=0 / bluray_compat=0 / constrained_intra=0 / bframes=10 / b_pyramid=2 / b_adapt=2 / b_bias=0 / direct=3 / weightb=1 / open_gop=0 / weightp=2 / keyint=250 / keyint_min=23 / scenecut=40 / intra_refresh=0 / rc_lookahead=40 / rc=2pass / mbtree=0 / bitrate=11000 / ratetol=1.0 / qcomp=0.60 / qpmin=0 / qpmax=69 / qpstep=4 / cplxblur=20.0 / qblur=0.5 / vbv_maxrate=50000 / vbv_bufsize=62500 / nal_hrd=none / filler=0 / ip_ratio=1.40 / pb_ratio=1.30 / aq=1:0.90
Default : Да
Forced : Нет
Аудио #1
Идентификатор : 2
Формат : DTS
Формат/Информация : Digital Theater Systems
Режим : 16
Параметр Endianness формата : Big
Идентификатор кодека : A_DTS
Продолжительность : 1 ч. 41 м.
Вид битрейта : Постоянный
Битрейт : 1509 Кбит/сек
Каналы : 6 каналов
Расположение каналов : Front: L C R, Side: L R, LFE
Частота : 48,0 КГц
Частота кадров : 93,750 кадра/сек (512 spf)
Битовая глубина : 16 бит
Метод сжатия : С потерями
Размер потока : 1,07 Гбайт (10%)
Заголовок : AVO @ А. Дольский
Язык : Russian
Default : Да
Forced : Нет
Аудио #2
Идентификатор : 3
Формат : DTS
Формат/Информация : Digital Theater Systems
Режим : 16
Параметр Endianness формата : Big
Идентификатор кодека : A_DTS
Продолжительность : 1 ч. 41 м.
Вид битрейта : Постоянный
Битрейт : 1509 Кбит/сек
Каналы : 6 каналов
Расположение каналов : Front: L C R, Side: L R, LFE
Частота : 48,0 КГц
Частота кадров : 93,750 кадра/сек (512 spf)
Битовая глубина : 16 бит
Метод сжатия : С потерями
Размер потока : 1,07 Гбайт (10%)
Заголовок : Eng
Язык : English
Default : Нет
Forced : Нет
Аудио #3
Идентификатор : 4
Формат : DTS
Формат/Информация : Digital Theater Systems
Режим : 16
Параметр Endianness формата : Big
Идентификатор кодека : A_DTS
Продолжительность : 1 ч. 41 м.
Вид битрейта : Постоянный
Битрейт : 1509 Кбит/сек
Каналы : 6 каналов
Расположение каналов : Front: L C R, Side: L R, LFE
Частота : 48,0 КГц
Частота кадров : 93,750 кадра/сек (512 spf)
Битовая глубина : 16 бит
Метод сжатия : С потерями
Размер потока : 1,07 Гбайт (10%)
Заголовок : Mandarin
Язык : Chinese
Default : Нет
Forced : Нет
Текст #1
Идентификатор : 5
Формат : UTF-8
Идентификатор кодека : S_TEXT/UTF8
Идентификатор кодека/Информация : UTF-8 Plain Text
Продолжительность : 1 ч. 39 м.
Битрейт : 41 бит/сек
Count of elements : 623
Размер потока : 30,1 Кбайт (0%)
Заголовок : Subtitle rus
Язык : Russian
Default : Нет
Forced : Нет
Текст #2
Идентификатор : 6
Формат : UTF-8
Идентификатор кодека : S_TEXT/UTF8
Идентификатор кодека/Информация : UTF-8 Plain Text
Продолжительность : 1 ч. 39 м.
Битрейт : 24 бит/сек
Count of elements : 621
Размер потока : 17,5 Кбайт (0%)
Заголовок : Subtitle eng
Язык : English
Default : Нет
Forced : Нет
Меню
00:00:00.000 : :Глава 01
00:18:56.335 : :Глава 02
00:29:21.326 : :Глава 03
00:38:38.816 : :Глава 04
00:47:43.861 : :Глава 05
00:56:49.339 : :Глава 06
01:09:51.788 : :Глава 07
01:15:52.548 : :Глава 08
01:30:17.078 : :Глава 09
01:39:54.889 : :Глава 10

Скриншоты


Сравнение с исходником





x264 info

x264 [info]: using SAR=1/1
x264 [info]: using cpu capabilities: MMX2 SSE2Fast SSSE3 SSE4.2 AVX
x264 [info]: profile High, level 4.1
x264 [info]: frame I:860 Avg QP:15.23 size:183943
x264 [info]: frame P:46902 Avg QP:17.59 size: 87509
x264 [info]: frame B:98482 Avg QP:19.31 size: 41870
x264 [info]: consecutive B-frames: 8.8% 10.1% 15.7% 24.7% 23.3% 12.5% 3.1% 0.5% 0.5% 0.7% 0.1%
x264 [info]: mb I I16..4: 5.9% 80.0% 14.1%
x264 [info]: mb P I16..4: 2.8% 47.9% 2.9% P16..4: 19.2% 21.3% 5.1% 0.5% 0.0% skip: 0.4%
x264 [info]: mb B I16..4: 0.8% 8.8% 0.3% B16..8: 32.6% 20.8% 3.2% direct:15.9% skip:17.6% L0:43.6% L1:39.6% BI:16.8%
x264 [info]: 8x8 transform intra:89.1% inter:66.3%
x264 [info]: direct mvs spatial:98.8% temporal:1.2%
x264 [info]: coded y,uvDC,uvAC intra: 89.5% 85.4% 55.1% inter: 47.6% 55.4% 5.3%
x264 [info]: i16 v,h,dc,p: 13% 21% 8% 58%
x264 [info]: i8 v,h,dc,ddl,ddr,vr,hd,vl,hu: 9% 11% 8% 8% 11% 11% 13% 12% 17%
x264 [info]: i4 v,h,dc,ddl,ddr,vr,hd,vl,hu: 13% 16% 6% 7% 12% 12% 13% 9% 13%
x264 [info]: i8c dc,h,v,p: 31% 30% 21% 17%
x264 [info]: Weighted P-Frames: Y:3.5% UV:1.6%
x264 [info]: ref P L0: 48.8% 11.1% 20.7% 9.7% 8.6% 1.1% 0.0%
x264 [info]: ref B L0: 80.8% 12.2% 5.4% 1.6%
x264 [info]: ref B L1: 97.5% 2.5%
x264 [info]: kb/s:10998.82

Сведения об исходнике

Общее
Идентификатор : 0 (0x0)
Полное имя : D:\!!!!!!!!!!!!!!!!!!!_Новое\Все мужчины - братья All Men Are Brothers\All Men Are Brothers 蕩寇誌 (1975) AVC 1080i BD25 - Shaw Bros\BDMV\STREAM\00000.m2ts
Формат : BDAV
Формат/Информация : Blu-ray Video
Размер файла : 19,4 Гбайт
Продолжительность : 1 ч. 41 м.
Режим общего битрейта : Переменный
Общий поток : 27,3 Мбит/сек
Максимальный общий битрейт : 48,0 Мбит/сек
Видео
Идентификатор : 4113 (0x1011)
Идентификатор меню : 1 (0x1)
Формат : AVC
Формат/Информация : Advanced Video Codec
Профиль формата : High@L4.1
Параметр CABAC формата : Да
Параметр ReFrames формата : 4 кадра
Идентификатор кодека : 27
Продолжительность : 1 ч. 41 м.
Вид битрейта : Переменный
Максимальный битрейт : 28,0 Мбит/сек
Ширина : 1920 пикселей
Высота : 1080 пикселей
Соотношение сторон : 16:9
Частота кадров : 29,970 (30000/1001) кадров/сек
Стандарт вещания : NTSC
Цветовое пространство : YUV
Субдискретизация насыщенности : 4:2:0
Битовая глубина : 8 бит
Тип развёртки : MBAFF
Метод сохранения типа развёртки : Чередующиеся поля
Порядок развёртки : Верхнее поле первое
Цветовой диапазон : Limited
Основные цвета : BT.709
Характеристики трансфера : BT.709
Коэффициенты матрицы : BT.709
Аудио #1
Идентификатор : 4352 (0x1100)
Идентификатор меню : 1 (0x1)
Формат : DTS
Формат/Информация : Digital Theater Systems
Профиль формата : MA / Core
Режим : 16
Параметр Endianness формата : Big
Режим смешивания : Stream extension
Идентификатор кодека : 134
Продолжительность : 1 ч. 41 м.
Вид битрейта : Переменный / Постоянный
Битрейт : Неизвестно / 1509 Кбит/сек
Каналы : 6 каналов
Расположение каналов : Front: L C R, Side: L R, LFE
Частота : 48,0 КГц
Частота кадров : 93,750 кадра/сек (512 spf)
Битовая глубина : 16 бит
Метод сжатия : Без потерь / Lossy
Аудио #2
Идентификатор : 4353 (0x1101)
Идентификатор меню : 1 (0x1)
Формат : AC-3
Формат/Информация : Audio Coding 3
Расширение режима : CM (complete main)
Параметр Endianness формата : Big
Идентификатор кодека : 129
Продолжительность : 1 ч. 41 м.
Вид битрейта : Постоянный
Битрейт : 224 Кбит/сек
Каналы : 2 канала
Расположение каналов : Front: L R
Частота : 48,0 КГц
Частота кадров : 31,250 кадров/сек (1536 spf)
Метод сжатия : С потерями
Размер потока : 163 Мбайт (1%)
Аудио #3
Идентификатор : 4354 (0x1102)
Идентификатор меню : 1 (0x1)
Формат : DTS
Формат/Информация : Digital Theater Systems
Профиль формата : MA / Core
Режим : 16
Параметр Endianness формата : Big
Режим смешивания : Stream extension
Идентификатор кодека : 134
Продолжительность : 1 ч. 41 м.
Вид битрейта : Переменный / Постоянный
Битрейт : Неизвестно / 1509 Кбит/сек
Каналы : 6 каналов
Расположение каналов : Front: L C R, Side: L R, LFE
Частота : 48,0 КГц
Частота кадров : 93,750 кадра/сек (512 spf)
Битовая глубина : 16 бит
Метод сжатия : Без потерь / Lossy
Аудио #4
Идентификатор : 4355 (0x1103)
Идентификатор меню : 1 (0x1)
Формат : AC-3
Формат/Информация : Audio Coding 3
Расширение режима : CM (complete main)
Параметр Endianness формата : Big
Идентификатор кодека : 129
Продолжительность : 1 ч. 41 м.
Вид битрейта : Постоянный
Битрейт : 224 Кбит/сек
Каналы : 2 канала
Расположение каналов : Front: L R
Частота : 48,0 КГц
Частота кадров : 31,250 кадров/сек (1536 spf)
Метод сжатия : С потерями
Размер потока : 163 Мбайт (1%)
Текст
Идентификатор : 4608 (0x1200)
Идентификатор меню : 1 (0x1)
Формат : PGS
Идентификатор кодека : 144
[Профиль] [ЛС]
Показать сообщения:    
Ответить на тему

Текущее время: 21-Фев 23:41

Часовой пояс: UTC + 3



Вы не можете начинать темы
Вы не можете отвечать на сообщения
Вы не можете редактировать свои сообщения
Вы не можете удалять свои сообщения
Вы не можете голосовать в опросах
Вы не можете прикреплять файлы к сообщениям
Вы можете скачивать файлы