BitTorrent клиенты



Введение в архитектуру / Архитектура 101 / An Introduction of Architecture / Architecture 101 / Geon Chook Hak Gae-Ron (Ли Ён Чжу / Lee Yong Joo) [2012, Южная Корея, Романтика, мелодрама, BDRip 1080p] DVO + Sub Rus, Eng + Original Kor

Ответить на тему
 
Автор Сообщение

Keeper ®

Пол: Не указан

Стаж: 1 год

Сообщений: 499

Создавать темы 07-Фев-2018 20:46

[Цитировать]

Введение в архитектуру / Архитектура 101 / An Introduction of Architecture / Architecture 101 / Geon Chook Hak Gae-Ron
Страна: Южная Корея
Студия: Myung Films
Жанр: Романтика, мелодрама
Год выпуска: 2012
Продолжительность: 01:56:26
Перевод: Любительский (двухголосый закадровый) Nas и mi24
Субтитры: русские (Фансаб-группа Big Boss), english, chinese (traditional), chinese (simplified)
Оригинальная аудиодорожка: Корейский
Режиссер: Ли Ён Чжу / Lee Yong Joo
В ролях: Дэвид Чианг, Фань Мэйшэн, Чен Куан-Тай, Ван Чжун, Дэнни Ли, Ван Гуанъюй, Юй Фэн, Ти Лун, Чжу Му, Тин Чин, Тун Линь, Боло Йен, Лю Ган, Ван Цин, Чжан Ян
Описание: История этих двоих началась еще в университете, когда двадцатилетний студент Сын Мин влюбляется в свою сокурсницу Со Ён. Но парень не успел признаться в своих чувствах, из-за недоразумения они перестают общаться и расстаются… Прошло пятнадцать лет, и вот, однажды, к известному архитектору Сын Мину обращается Со Ён, для того, чтобы он помог восстановить ее старый дом. В то время как строительство дома продвигается, пара начинает снова влюбляться друг в друга…
Доп. информация: аудио дорожка и субтитры взяты http://rutracker.org/forum/viewtopic.php?t=4961818
Сэмпл: http://multi-up.com/1105518
Тип релиза: BDRip 1080p
Контейнер: MKV
Видео: 1920x816 (2.35:1); 11000 Kbps; 23.976 fps; 0.293 bpp
Аудио: Русский; AC3; 48.0 KHz; 2ch; 192 Kbps
Аудио 2: Корейский; AC3; 48.0 KHz; 6ch; 640 Kbps
Формат субтитров: softsub (SRT)

MediaInfo

General
Unique ID : 192109111591212267725304271166965628145 (0x9086DE7ABC9CE9A9944E9E6491753CF1)
Complete name : D:\Downloads\Architecture.101.2012.BluRay.1080p.AC3.x264-CHD.mkv
Format : Matroska
Format version : Version 4 / Version 2
File size : 9.62 GiB
Duration : 1h 56mn
Overall bit rate : 11.8 Mbps
Encoded date : UTC 2016-06-09 05:42:25
Writing application : mkvmerge v9.2.0 ('Photograph') 64bit
Writing library : libebml v1.3.3 + libmatroska v1.4.4
Video
ID : 1
Format : AVC
Format/Info : Advanced Video Codec
Format profile : High@L4.1
Format settings, CABAC : Yes
Format settings, ReFrames : 5 frames
Codec ID : V_MPEG4/ISO/AVC
Duration : 1h 56mn
Bit rate : 11.0 Mbps
Width : 1 920 pixels
Height : 816 pixels
Display aspect ratio : 2.35:1
Frame rate mode : Constant
Frame rate : 23.976 (24000/1001) fps
Color space : YUV
Chroma subsampling : 4:2:0
Bit depth : 8 bits
Scan type : Progressive
Bits/(Pixel*Frame) : 0.293
Stream size : 8.94 GiB (93%)
Writing library : x264 core 120
Encoding settings : cabac=1 / ref=5 / deblock=1:-3:-3 / analyse=0x3:0x133 / me=umh / subme=10 / psy=1 / psy_rd=1.00:0.15 / mixed_ref=1 / me_range=32 / chroma_me=1 / trellis=2 / 8x8dct=1 / cqm=0 / deadzone=21,11 / fast_pskip=1 / chroma_qp_offset=-3 / threads=6 / sliced_threads=0 / nr=0 / decimate=1 / interlaced=0 / bluray_compat=0 / constrained_intra=0 / bframes=6 / b_pyramid=2 / b_adapt=2 / b_bias=0 / direct=3 / weightb=1 / open_gop=0 / weightp=2 / keyint=240 / keyint_min=24 / scenecut=40 / intra_refresh=0 / rc_lookahead=50 / rc=2pass / mbtree=1 / bitrate=11000 / ratetol=1.0 / qcomp=0.60 / qpmin=3 / qpmax=69 / qpstep=4 / cplxblur=20.0 / qblur=0.5 / ip_ratio=1.40 / aq=1:1.00
Language : English
Default : Yes
Forced : No
Color range : Limited
Color primaries : BT.709
Transfer characteristics : BT.709
Matrix coefficients : BT.709
Audio #1
ID : 2
Format : AC-3
Format/Info : Audio Coding 3
Mode extension : CM (complete main)
Format settings, Endianness : Big
Codec ID : A_AC3
Duration : 1h 56mn
Bit rate mode : Constant
Bit rate : 192 Kbps
Channel(s) : 2 channels
Channel positions : Front: L R
Sampling rate : 48.0 KHz
Frame rate : 31.250 fps (1536 spf)
Compression mode : Lossy
Stream size : 160 MiB (2%)
Title : Русский (Nas и mi24)
Language : Russian
Default : Yes
Forced : No
Audio #2
ID : 3
Format : AC-3
Format/Info : Audio Coding 3
Mode extension : CM (complete main)
Format settings, Endianness : Big
Codec ID : A_AC3
Duration : 1h 56mn
Bit rate mode : Constant
Bit rate : 640 Kbps
Channel(s) : 6 channels
Channel positions : Front: L C R, Side: L R, LFE
Sampling rate : 48.0 KHz
Frame rate : 31.250 fps (1536 spf)
Compression mode : Lossy
Stream size : 533 MiB (5%)
Title : Korean
Language : Korean
Default : No
Forced : No
Text #1
ID : 4
Format : UTF-8
Codec ID : S_TEXT/UTF8
Codec ID/Info : UTF-8 Plain Text
Duration : 1h 49mn
Bit rate : 95 bps
Count of elements : 1493
Stream size : 76.2 KiB (0%)
Title : Русский (Фансаб-группа Big Boss)
Language : Russian
Default : No
Forced : No
Text #2
ID : 5
Format : UTF-8
Codec ID : S_TEXT/UTF8
Codec ID/Info : UTF-8 Plain Text
Duration : 1h 47mn
Bit rate : 36 bps
Count of elements : 1356
Stream size : 28.9 KiB (0%)
Title : English
Language : English
Default : No
Forced : No
Text #3
ID : 6
Format : UTF-8
Codec ID : S_TEXT/UTF8
Codec ID/Info : UTF-8 Plain Text
Duration : 1h 47mn
Bit rate : 50 bps
Count of elements : 1497
Stream size : 40.0 KiB (0%)
Title : Chinese (Traditional)
Language : Chinese
Default : No
Forced : No
Text #4
ID : 7
Format : UTF-8
Codec ID : S_TEXT/UTF8
Codec ID/Info : UTF-8 Plain Text
Duration : 1h 47mn
Bit rate : 53 bps
Count of elements : 1497
Stream size : 41.9 KiB (0%)
Title : Chinese (Simplified)
Language : Chinese
Default : No
Forced : No

Скриншоты

[Профиль] [ЛС]
Показать сообщения:    
Ответить на тему

Текущее время: 19-Фев 16:18

Часовой пояс: UTC + 3



Вы не можете начинать темы
Вы не можете отвечать на сообщения
Вы не можете редактировать свои сообщения
Вы не можете удалять свои сообщения
Вы не можете голосовать в опросах
Вы не можете прикреплять файлы к сообщениям
Вы можете скачивать файлы