BitTorrent клиенты



Кидала в Вегасе / The Conmen In Vegas / Du xia da zhan La Si Wei Jia Si (Вон Цзин / Jing Wong) [1999, Гонконг, комедия, боевик, BDRemux 1080p] AVO (А. Дольский) + Sub Eng + Original Chi

Ответить на тему
 
Автор Сообщение

Keeper ®

Пол: Не указан

Стаж: 1 год

Сообщений: 499

Создавать темы 07-Фев-2018 20:46

[Цитировать]

Кидала в Вегасе / The Conmen In Vegas / Du xia da zhan La Si Wei Jia Si
Страна: Гонконг
Студия: China Star Entertainment, Win's Entertainment Ltd., Jing's Production
Жанр: комедия, боевик
Год выпуска: 1999
Продолжительность: 01:37:25
Перевод: Авторский (одноголосый закадровый) А. Дольский
Субтитры: английские
Оригинальная аудиодорожка: китайский
Режиссер: Вон Цзин / Jing Wong
В ролях: Ник Чун, Энди Лау, Джевел Ли, Вон Цзин, Пак-чун Чан, Ник Чун Ка-фай, Джевел Ли, Келли Лин, Алекс Мэн, Йин Нэм, Фэнг Ю и др.
Описание: Король и его новый подручный Нат вынуждены отправиться в Лас-Вегас, чтобы вернуть в Гонконг вора, укравшего у Китая четыре миллиарда долларов — только так они смогут выручить Дракона, за которого мафия требует выкуп в 30 миллионов. Там герои знакомятся с двумя очаровательными девушками, и с их помощью заманить беглеца в ловушку не составляет труда, однако вот довезти его до Гонконга оказывается задачей не из простых.
II Сэмпл II IMDB II
Релиз группа:

Доп. информация:
Английские субтитры распознаны с исходника.
За авторский перевод благодарим Андрея Дольского и пользователей Юрай, vedigo
Тип релиза: BDRemux 1080p
Контейнер: MKV
Видео: AVC / 1920x1080 / 16:9 / 24.0fps / 24000Kbps / High@L4.1
Аудио 1: DTS-HD MA / 48.0KHz / 8ch. / 3003kbps / 16bit (DTS Core 48.0KHz / 6ch. / 1509kbps / 16bit) Rus / AVO / А. Дольский
Аудио 2: DTS-HD MA / 48.0KHz / 8ch. / 3072kbps / 16bit (DTS Core 48.0KHz / 6ch. / 1509kbps / 16bit) Cantonese
Аудио 3: AC3 / 48.0KHz / 6ch. / 640kbps / Mandarin
Формат субтитров: softsub (SRT)

MediaInfo

Уникальный идентификатор : 201092222715685415707780651601056065560 (0x9748F40D82AA874D995222A931D56818)
Полное имя : E:\torrent\_HD\temp\The.Conmen.In.Vegas.1999.BDRemux.1080p_by_vedigo.mkv
Формат : Matroska
Версия формата : Version 4 / Version 2
Размер файла : 20,9 Гбайт
Продолжительность : 1 ч. 37 м.
Режим общего битрейта : Переменный
Общий поток : 30,7 Мбит/сек
Название фильма : The.Conmen.In.Vegas.1999.BDRemux.1080p_by_vedigo
Дата кодирования : UTC 2016-06-09 01:32:57
Программа кодирования : mkvmerge v9.2.0 ('Photograph') 64bit
Библиотека кодирования : libebml v1.3.3 + libmatroska v1.4.4
Видео
Идентификатор : 1
Формат : AVC
Формат/Информация : Advanced Video Codec
Профиль формата : High@L4.1
Параметр CABAC формата : Да
Параметр ReFrames формата : 4 кадра
Идентификатор кодека : V_MPEG4/ISO/AVC
Продолжительность : 1 ч. 37 м.
Вид битрейта : Переменный
Битрейт : 24,0 Мбит/сек
Максимальный битрейт : 30,0 Мбит/сек
Ширина : 1920 пикселей
Высота : 1080 пикселей
Соотношение сторон : 16:9
Режим частоты кадров : Постоянный
Частота кадров : 24,000 кадра/сек
Стандарт вещания : NTSC
Цветовое пространство : YUV
Субдискретизация насыщенности : 4:2:0
Битовая глубина : 8 бит
Тип развёртки : Прогрессивная
Бит/(Пиксели*Кадры) : 0.482
Размер потока : 16,3 Гбайт (78%)
Заголовок : The.Conmen.In.Vegas.1999.BDRemux.1080p_by_vedigo
Default : Да
Forced : Нет
Цветовой диапазон : Limited
Основные цвета : BT.709
Характеристики трансфера : BT.709
Коэффициенты матрицы : BT.709
Аудио #1
Идентификатор : 2
Формат : DTS
Формат/Информация : Digital Theater Systems
Профиль формата : MA / Core
Режим : 16
Параметр Endianness формата : Big
Идентификатор кодека : A_DTS
Продолжительность : 1 ч. 37 м.
Вид битрейта : Переменный / Постоянный
Битрейт : 3003 Кбит/сек / 1509 Кбит/сек
Каналы : 8 каналов / 6 каналов
Расположение каналов : Front: L C R, Side: L R, Back: L R, LFE / Front: L C R, Side: L R, LFE
Частота : 48,0 КГц
Частота кадров : 93,750 кадра/сек (512 spf)
Битовая глубина : 16 бит
Метод сжатия : Без потерь / Lossy
Размер потока : 2,04 Гбайт (10%)
Заголовок : AVO @ А. Дольский
Язык : Russian
Default : Да
Forced : Нет
Аудио #2
Идентификатор : 3
Формат : DTS
Формат/Информация : Digital Theater Systems
Профиль формата : MA / Core
Режим : 16
Параметр Endianness формата : Big
Идентификатор кодека : A_DTS
Продолжительность : 1 ч. 37 м.
Вид битрейта : Переменный / Постоянный
Битрейт : 3072 Кбит/сек / 1509 Кбит/сек
Каналы : 8 каналов / 6 каналов
Расположение каналов : Front: L C R, Side: L R, Back: L R, LFE / Front: L C R, Side: L R, LFE
Частота : 48,0 КГц
Частота кадров : 93,750 кадра/сек (512 spf)
Битовая глубина : 16 бит
Метод сжатия : Без потерь / Lossy
Размер потока : 2,06 Гбайт (10%)
Заголовок : Cantonese
Язык : Chinese
Default : Нет
Forced : Нет
Аудио #3
Идентификатор : 4
Формат : AC-3
Формат/Информация : Audio Coding 3
Расширение режима : CM (complete main)
Параметр Endianness формата : Big
Идентификатор кодека : A_AC3
Продолжительность : 1 ч. 37 м.
Вид битрейта : Постоянный
Битрейт : 640 Кбит/сек
Каналы : 6 каналов
Расположение каналов : Front: L C R, Side: L R, LFE
Частота : 48,0 КГц
Частота кадров : 31,250 кадров/сек (1536 spf)
Метод сжатия : С потерями
Размер потока : 445 Мбайт (2%)
Заголовок : Mandarin
Язык : Chinese
Default : Нет
Forced : Нет
Текст
Идентификатор : 5
Формат : UTF-8
Идентификатор кодека : S_TEXT/UTF8
Идентификатор кодека/Информация : UTF-8 Plain Text
Продолжительность : 1 ч. 33 м.
Битрейт : 57 бит/сек
Count of elements : 1528
Размер потока : 39,5 Кбайт (0%)
Заголовок : Subtitle eng
Язык : English
Default : Нет
Forced : Нет

Скриншоты


[Профиль] [ЛС]
Показать сообщения:    
Ответить на тему

Текущее время: 21-Фев 23:32

Часовой пояс: UTC + 3



Вы не можете начинать темы
Вы не можете отвечать на сообщения
Вы не можете редактировать свои сообщения
Вы не можете удалять свои сообщения
Вы не можете голосовать в опросах
Вы не можете прикреплять файлы к сообщениям
Вы можете скачивать файлы