BitTorrent клиенты



Кидала / The Conman / Du xia 1999 (Вонг Цзин / Jing Wong) [1998, Гонконг, комедия, BDRip 720p] AVO (А. Дольский) + Sub Eng + Original Chi

Ответить на тему
 
Автор Сообщение

Keeper ®

Пол: Не указан

Стаж: 1 год

Сообщений: 499

Создавать темы 07-Фев-2018 20:46

[Цитировать]

Кидала / The Conman / Du xia
Страна: Гонконг
Студия: China Star Entertainment, Win's Entertainment Ltd., B.O.B. and Partners
Жанр: комедия
Год выпуска: 1998
Продолжительность: 01:52:29
Перевод: Авторский (одноголосый закадровый) А. Дольский
Субтитры: английские
Оригинальная аудиодорожка: китайский
Режиссер: Вонг Цзин / Jing Wong
В ролях: Энди Лау, Афена Чу, Ник Чеунг, Уэйз Ли, Бен Нг, Бонни Ло, Винсент Чик, Вонг Цзин, Джек Као, Карел Вонг, Ли Сиу-Кэй, Спенсер Лам, Фрэнки Нг, Эдди Чэ, Эмоушен Чеунг, Энджи Чеунг, Алан Ман, Юнг Кин-Вай, Вонг Кам-Тун, Аман Чанг, Джон Чеунг, эри Мак, Джонни Чеунг, Со Вай-Нам, Чоу Мэй-Шин, Там Тин-Бо, Юй Ка-Хо, Вонг Ман-Чун.
Описание: Король (Энди Лау) – один из лучших карточных шулеров, что появлялись на свет. Он постоянно совершенствуется и уже почти готов вызвать на бой лучшего игрока – Макау Вана (Джек Као), но в проходной игре оказывается пойманным на жульничестве. Обороняясь, он убивает своего соперника и попадает, помимо больницы, сразу после этого на пять лет в тюрьму. Его жена и нерожденный ребенок за это время теряются, и когда Кинг выходит, наконец, на свободу, он решает завершить-таки то, что так и не успел, и с помощью ученика Дракона (Ник Чеунг) и его сестры (Афена Чу) вернуться в большую игру.
II Сэмпл II IMDB II
Релиз группа:

Тип релиза: BDRip 720p
Контейнер: MKV
Видео: AVC / 1278x720 / 16:9 / 24.0fps / Bit rate 6500Kbps / High@L4.1
Аудио 1: DTS / 48.0 KHz / 6ch. / 1509kbps / 16bit / Rus / AVO / А. Дольский
Аудио 2: DTS / 48.0 KHz / 6ch. / 1509kbps / 16bit / Cantonese
Аудио 3: AC3 / 48.0 KHz / 6ch. / 640kbps / Mandarin
Формат субтитров: softsub (SRT)

MediaInfo

Общее
Уникальный идентификатор : 212579358630151521756386213909658729397 (0x9FED4B947C0A7C6089F61A3DFA75FBB5)
Полное имя : E:\torrent\_HD\temp\The.Conman.1998.BDRip.720p_by_vedigo.mkv
Формат : Matroska
Версия формата : Version 4 / Version 2
Размер файла : 7,98 Гбайт
Продолжительность : 1 ч. 52 м.
Общий поток : 10,2 Мбит/сек
Название фильма : The.Conman.1998.BDRip.720p_by_vedigo
Дата кодирования : UTC 2016-06-03 12:47:30
Программа кодирования : mkvmerge v9.2.0 ('Photograph') 64bit
Библиотека кодирования : libebml v1.3.3 + libmatroska v1.4.4
Видео
Идентификатор : 1
Формат : AVC
Формат/Информация : Advanced Video Codec
Профиль формата : High@L4.1
Параметр CABAC формата : Да
Параметр ReFrames формата : 9 кадров
Идентификатор кодека : V_MPEG4/ISO/AVC
Продолжительность : 1 ч. 52 м.
Битрейт : 6500 Кбит/сек
Ширина : 1278 пикселей
Высота : 720 пикселей
Соотношение сторон : 16:9
Режим частоты кадров : Постоянный
Частота кадров : 24,000 кадра/сек
Цветовое пространство : YUV
Субдискретизация насыщенности : 4:2:0
Битовая глубина : 8 бит
Тип развёртки : Прогрессивная
Бит/(Пиксели*Кадры) : 0.294
Размер потока : 5,11 Гбайт (64%)
Заголовок : The.Conman.1998.BDRip.720p_by_vedigo
Библиотека кодирования : x264 core 148 r2692 64f4e24
Настройки программы : cabac=1 / ref=9 / deblock=1:-3:-3 / analyse=0x3:0x133 / me=umh / subme=11 / psy=1 / psy_rd=1.00:0.10 / mixed_ref=1 / me_range=48 / chroma_me=1 / trellis=2 / 8x8dct=1 / cqm=0 / deadzone=21,11 / fast_pskip=0 / chroma_qp_offset=-3 / threads=12 / lookahead_threads=2 / sliced_threads=0 / nr=0 / decimate=1 / interlaced=0 / bluray_compat=0 / constrained_intra=0 / bframes=7 / b_pyramid=2 / b_adapt=2 / b_bias=0 / direct=3 / weightb=1 / open_gop=0 / weightp=2 / keyint=250 / keyint_min=23 / scenecut=40 / intra_refresh=0 / rc_lookahead=40 / rc=2pass / mbtree=0 / bitrate=6500 / ratetol=1.0 / qcomp=0.60 / qpmin=0 / qpmax=69 / qpstep=4 / cplxblur=20.0 / qblur=0.5 / vbv_maxrate=50000 / vbv_bufsize=62500 / nal_hrd=none / filler=0 / ip_ratio=1.40 / pb_ratio=1.30 / aq=1:0.90
Default : Да
Forced : Нет
Аудио #1
Идентификатор : 2
Формат : DTS
Формат/Информация : Digital Theater Systems
Режим : 16
Параметр Endianness формата : Big
Идентификатор кодека : A_DTS
Продолжительность : 1 ч. 52 м.
Вид битрейта : Постоянный
Битрейт : 1509 Кбит/сек
Каналы : 6 каналов
Расположение каналов : Front: L C R, Side: L R, LFE
Частота : 48,0 КГц
Частота кадров : 93,750 кадра/сек (512 spf)
Битовая глубина : 16 бит
Метод сжатия : С потерями
Размер потока : 1,19 Гбайт (15%)
Заголовок : AVO @ А. Дольский
Язык : Russian
Default : Да
Forced : Нет
Аудио #2
Идентификатор : 3
Формат : DTS
Формат/Информация : Digital Theater Systems
Режим : 16
Параметр Endianness формата : Big
Идентификатор кодека : A_DTS
Продолжительность : 1 ч. 52 м.
Вид битрейта : Постоянный
Битрейт : 1510 Кбит/сек
Каналы : 6 каналов
Расположение каналов : Front: L C R, Side: L R, LFE
Частота : 48,0 КГц
Частота кадров : 93,750 кадра/сек (512 spf)
Битовая глубина : 16 бит
Метод сжатия : С потерями
Размер потока : 1,18 Гбайт (15%)
Заголовок : Cantonese
Язык : Chinese
Default : Нет
Forced : Нет
Аудио #3
Идентификатор : 4
Формат : AC-3
Формат/Информация : Audio Coding 3
Расширение режима : CM (complete main)
Параметр Endianness формата : Big
Идентификатор кодека : A_AC3
Продолжительность : 1 ч. 52 м.
Вид битрейта : Постоянный
Битрейт : 640 Кбит/сек
Каналы : 6 каналов
Расположение каналов : Front: L C R, Side: L R, LFE
Частота : 48,0 КГц
Частота кадров : 31,250 кадров/сек (1536 spf)
Метод сжатия : С потерями
Задержка видео : 2 с. 0 мс.
Размер потока : 514 Мбайт (6%)
Заголовок : Mandarin
Язык : Chinese
Default : Нет
Forced : Нет
Текст
Идентификатор : 5
Формат : UTF-8
Идентификатор кодека : S_TEXT/UTF8
Идентификатор кодека/Информация : UTF-8 Plain Text
Продолжительность : 1 ч. 48 м.
Битрейт : 62 бит/сек
Count of elements : 1728
Размер потока : 49,9 Кбайт (0%)
Заголовок : subtitle eng
Язык : English
Default : Нет
Forced : Нет

Скриншоты


Сравнение с исходником





x264 info

x264 [info]: using SAR=1/1
x264 [info]: using cpu capabilities: MMX2 SSE2Fast SSSE3 SSE4.2 AVX
x264 [info]: profile High, level 4.1
x264 [info]: frame I:1095 Avg QP:14.69 size:151062
x264 [info]: frame P:36938 Avg QP:16.74 size: 70319
x264 [info]: frame B:123928 Avg QP:19.15 size: 21939
x264 [info]: consecutive B-frames: 2.5% 3.1% 10.0% 19.1% 14.3% 49.0% 1.6% 0.4%
x264 [info]: mb I I16..4: 12.6% 71.2% 16.2%
x264 [info]: mb P I16..4: 1.5% 29.7% 1.4% P16..4: 22.3% 30.6% 12.0% 1.8% 0.1% skip: 0.6%
x264 [info]: mb B I16..4: 0.2% 2.4% 0.1% B16..8: 35.3% 24.8% 4.7% direct: 8.2% skip:24.4% L0:40.9% L1:41.9% BI:17.2%
x264 [info]: 8x8 transform intra:89.4% inter:53.1%
x264 [info]: direct mvs spatial:99.1% temporal:0.9%
x264 [info]: coded y,uvDC,uvAC intra: 94.4% 93.0% 77.6% inter: 36.6% 32.6% 6.0%
x264 [info]: i16 v,h,dc,p: 45% 7% 12% 36%
x264 [info]: i8 v,h,dc,ddl,ddr,vr,hd,vl,hu: 9% 8% 12% 10% 13% 12% 11% 12% 12%
x264 [info]: i4 v,h,dc,ddl,ddr,vr,hd,vl,hu: 9% 6% 6% 9% 16% 15% 14% 12% 12%
x264 [info]: i8c dc,h,v,p: 43% 21% 17% 18%
x264 [info]: Weighted P-Frames: Y:8.6% UV:1.9%
x264 [info]: ref P L0: 43.4% 10.6% 18.9% 7.0% 6.5% 4.1% 4.3% 2.2% 2.6% 0.3% 0.0%
x264 [info]: ref B L0: 87.2% 6.6% 2.4% 1.4% 0.9% 0.8% 0.5% 0.3%
x264 [info]: ref B L1: 98.6% 1.4%
[Профиль] [ЛС]
Показать сообщения:    
Ответить на тему

Текущее время: 19-Фев 16:38

Часовой пояс: UTC + 3



Вы не можете начинать темы
Вы не можете отвечать на сообщения
Вы не можете редактировать свои сообщения
Вы не можете удалять свои сообщения
Вы не можете голосовать в опросах
Вы не можете прикреплять файлы к сообщениям
Вы можете скачивать файлы