BitTorrent клиенты



Бандаж / Bandage / Bandeiji (Такеши Кобаяши / Takeshi Kobayashi) [2010, Япония, драма, мелодрама, музыка, HDTVRip 720p] Sub Rus, Eng + Original Jap

Ответить на тему
 
Автор Сообщение

Keeper ®

Пол: Не указан

Стаж: 1 год

Сообщений: 499

Создавать темы 07-Фев-2018 20:46

[Цитировать]

Бандаж / Bandage / Bandeiji
Страна: Япония
Студия: Basara Pictures, D.N. Dream Partners, J Storm
Жанр: драма, мелодрама, музыка
Год выпуска: 2010
Продолжительность: 02:00:00
Перевод: Субтитры
Субтитры: русские (stay_c), английские
Оригинальная аудиодорожка: японский
Режиссер: Такеши Кобаяши / Takeshi Kobayashi
В ролях: Джин Аканиши, Кии Китано, Кенго Кора, Айуми Ито, Юки Шибамото, Нубаки Канеко, Хидеюки Касахара, Энн, Хацунори Хасэгава, Йошиюки Ишизука и др.
Описание: Это вымышленная история о четырех молодых музыкантах, чья группа существовала в период небывалого расцвета альтернативной рок-музыки в Японии девяностых годов. Головокружительный мир музыкальной индустрии, романтика и невзгоды настоящей жизни оказались самой серьезной проверкой для их талантов и дружбы.
II Сэмпл II IMDB II
Релиз группа:

Доп. информация:
За русские субтитры спасибо vitasman
Тип релиза: HDTVRip 720p
Контейнер: MKV
Видео: AVC / 1280x682 / 1.85:1 / 23.976fps / Bit rate / 5500Kbps / High@L4.1
Аудио: AC3 / 48.0 KHz / 6ch. / 448kbps / Jap
Формат субтитров: softsub (SRT)

MediaInfo

Общее
Уникальный идентификатор : 217377113252728964183387342608626559752 (0xA3894F255BA936FB8B3FFFFA548B2B08)
Полное имя : E:\torrent\_HD\temp\Bandage.2010.HDTVRip.720p_by_vedigo.mkv
Формат : Matroska
Версия формата : Version 4 / Version 2
Размер файла : 4,99 Гбайт
Продолжительность : 1 ч. 59 м.
Общий поток : 5947 Кбит/сек
Название фильма : Bandage.2010.HDTVRip.720p_by_vedigo
Дата кодирования : UTC 2016-05-25 06:02:42
Программа кодирования : mkvmerge v9.1.0 ('Little Earthquakes') 64bit
Библиотека кодирования : libebml v1.3.3 + libmatroska v1.4.4
Видео
Идентификатор : 1
Формат : AVC
Формат/Информация : Advanced Video Codec
Профиль формата : High@L4.1
Параметр CABAC формата : Да
Параметр ReFrames формата : 9 кадров
Идентификатор кодека : V_MPEG4/ISO/AVC
Продолжительность : 1 ч. 59 м.
Битрейт : 5500 Кбит/сек
Ширина : 1280 пикселей
Высота : 682 пикселя
Соотношение сторон : 1,85:1
Режим частоты кадров : Постоянный
Частота кадров : 23,976 (24000/1001) кадра/сек
Цветовое пространство : YUV
Субдискретизация насыщенности : 4:2:0
Битовая глубина : 8 бит
Тип развёртки : Прогрессивная
Бит/(Пиксели*Кадры) : 0.263
Размер потока : 4,61 Гбайт (92%)
Заголовок : Bandage.2010.HDTVRip.720p_by_vedigo
Библиотека кодирования : x264 core 148 r2692 64f4e24
Настройки программы : cabac=1 / ref=9 / deblock=1:-3:-3 / analyse=0x3:0x133 / me=umh / subme=11 / psy=1 / psy_rd=1.00:0.10 / mixed_ref=1 / me_range=48 / chroma_me=1 / trellis=2 / 8x8dct=1 / cqm=0 / deadzone=21,11 / fast_pskip=0 / chroma_qp_offset=-3 / threads=12 / lookahead_threads=3 / sliced_threads=0 / nr=0 / decimate=1 / interlaced=0 / bluray_compat=0 / constrained_intra=0 / bframes=10 / b_pyramid=2 / b_adapt=2 / b_bias=0 / direct=3 / weightb=1 / open_gop=0 / weightp=2 / keyint=250 / keyint_min=23 / scenecut=40 / intra_refresh=0 / rc_lookahead=40 / rc=2pass / mbtree=0 / bitrate=5500 / ratetol=1.0 / qcomp=0.60 / qpmin=0 / qpmax=69 / qpstep=4 / cplxblur=20.0 / qblur=0.5 / vbv_maxrate=50000 / vbv_bufsize=62500 / nal_hrd=none / filler=0 / ip_ratio=1.40 / pb_ratio=1.30 / aq=1:0.90
Язык : Japanese
Default : Да
Forced : Нет
Аудио
Идентификатор : 2
Формат : AC-3
Формат/Информация : Audio Coding 3
Расширение режима : CM (complete main)
Параметр Endianness формата : Big
Идентификатор кодека : A_AC3
Продолжительность : 1 ч. 59 м.
Вид битрейта : Постоянный
Битрейт : 448 Кбит/сек
Каналы : 6 каналов
Расположение каналов : Front: L C R, Side: L R, LFE
Частота : 48,0 КГц
Частота кадров : 31,250 кадров/сек (1536 spf)
Метод сжатия : С потерями
Размер потока : 385 Мбайт (8%)
Заголовок : original
Язык : Japanese
Default : Да
Forced : Нет
Текст #1
Идентификатор : 3
Формат : UTF-8
Идентификатор кодека : S_TEXT/UTF8
Идентификатор кодека/Информация : UTF-8 Plain Text
Продолжительность : 1 ч. 55 м.
Битрейт : 69 бит/сек
Count of elements : 896
Размер потока : 59,1 Кбайт (0%)
Заголовок : subtitle rus @ stay_c
Язык : Russian
Default : Да
Forced : Нет
Текст #2
Идентификатор : 4
Формат : UTF-8
Идентификатор кодека : S_TEXT/UTF8
Идентификатор кодека/Информация : UTF-8 Plain Text
Продолжительность : 1 ч. 58 м.
Битрейт : 51 бит/сек
Count of elements : 1052
Размер потока : 44,6 Кбайт (0%)
Заголовок : subtitle eng
Язык : English
Default : Нет
Forced : Нет

Скриншоты


Сравнение с исходником





Сравнение с DVDRip

HDTVRip------------------------------DVDRip

x264 info

x264 [info]: using SAR=1/1
x264 [info]: using cpu capabilities: MMX2 SSE2Fast SSSE3 SSE4.2 AVX
x264 [info]: profile High, level 4.1
x264 [info]: frame I:965 Avg QP:11.95 size:116961
x264 [info]: frame P:44054 Avg QP:14.17 size: 52457
x264 [info]: frame B:127607 Avg QP:16.13 size: 19779
x264 [info]: consecutive B-frames: 3.7% 7.2% 10.7% 20.2% 27.1% 20.0% 6.3% 1.6% 1.2% 1.6% 0.4%
x264 [info]: mb I I16..4: 13.0% 59.0% 28.0%
x264 [info]: mb P I16..4: 2.1% 24.4% 3.2% P16..4: 22.5% 29.9% 10.9% 2.0% 0.1% skip: 4.8%
x264 [info]: mb B I16..4: 0.5% 2.6% 0.3% B16..8: 31.6% 27.3% 5.4% direct:10.9% skip:21.4% L0:41.8% L1:40.0% BI:18.2%
x264 [info]: 8x8 transform intra:79.6% inter:49.4%
x264 [info]: direct mvs spatial:98.7% temporal:1.3%
x264 [info]: coded y,uvDC,uvAC intra: 84.1% 83.3% 73.4% inter: 33.4% 32.5% 9.6%
x264 [info]: i16 v,h,dc,p: 32% 14% 10% 44%
x264 [info]: i8 v,h,dc,ddl,ddr,vr,hd,vl,hu: 13% 13% 16% 7% 9% 10% 9% 10% 13%
x264 [info]: i4 v,h,dc,ddl,ddr,vr,hd,vl,hu: 17% 15% 17% 6% 9% 9% 9% 8% 9%
x264 [info]: i8c dc,h,v,p: 47% 28% 16% 9%
x264 [info]: Weighted P-Frames: Y:1.8% UV:1.0%
x264 [info]: ref P L0: 49.1% 9.2% 17.6% 6.4% 5.7% 3.8% 3.7% 2.1% 2.3% 0.1% 0.0%
x264 [info]: ref B L0: 81.0% 9.2% 4.1% 2.0% 1.5% 1.2% 0.8% 0.3%
x264 [info]: ref B L1: 96.9% 3.1%
x264 [info]: kb/s:5497.46

Сведения об исходнике

Общее
Идентификатор : 1 (0x1)
Полное имя : D:\Sat_rip\!_Азиатские фильмы\!!!!!!!!!!!!!!!!!!!_Новое\Бандаж 2010\BANDAGE 「バンテイジ」 (2010).ts
Формат : MPEG-TS
Размер файла : 12,0 Гбайт
Продолжительность : 2 ч. 0 м.
Режим общего битрейта : Переменный
Общий поток : 14,4 Мбит/сек
Максимальный общий битрейт : 25,3 Мбит/сек
Видео
Идентификатор : 4352 (0x1100)
Идентификатор меню : 1 (0x1)
Формат : MPEG Video
Версия формата : Version 2
Профиль формата : Main@High
Параметр BVOP формата : Да
Параметр матрицы формата : Выборочная
Параметр GOP формата : Variable
Структура изображения : Frame
Идентификатор кодека : 2
Продолжительность : 1 ч. 59 м.
Вид битрейта : Переменный
Битрейт : 13,2 Мбит/сек
Максимальный битрейт : 24,0 Мбит/сек
Ширина : 1440 пикселей
Высота : 1080 пикселей
Соотношение сторон : 16:9
Частота кадров : 29,970 (30000/1001) кадров/сек
Стандарт вещания : Component
Цветовое пространство : YUV
Субдискретизация насыщенности : 4:2:0
Битовая глубина : 8 бит
Тип развёртки : Чересстрочная
Порядок развёртки : Верхнее поле первое
Метод сжатия : С потерями
Бит/(Пиксели*Кадры) : 0.283
Временной код первого кадра : 00:00:00:00
Оригинал временного кода : Group of pictures header
GOP, открыто/закрыто : Открыто
GOP, открыто/закрыто на первом кадре : Закрыто
Размер потока : 11,1 Гбайт (92%)
Основные цвета : BT.709
Характеристики трансфера : BT.709
Коэффициенты матрицы : BT.709
Аудио
Идентификатор : 4353 (0x1101)
Идентификатор меню : 1 (0x1)
Формат : AC-3
Формат/Информация : Audio Coding 3
Расширение режима : CM (complete main)
Параметр Endianness формата : Big
Идентификатор кодека : 129
Продолжительность : 1 ч. 59 м.
[Профиль] [ЛС]
Показать сообщения:    
Ответить на тему

Текущее время: 21-Фев 23:39

Часовой пояс: UTC + 3



Вы не можете начинать темы
Вы не можете отвечать на сообщения
Вы не можете редактировать свои сообщения
Вы не можете удалять свои сообщения
Вы не можете голосовать в опросах
Вы не можете прикреплять файлы к сообщениям
Вы можете скачивать файлы