BitTorrent клиенты



Город насилия / Jjakpae / The City Of Violence (Рю Сын Ван / Ryoo Seung Wan) [2006, Южная Корея, боевик, драма, криминал, BDRip 720p] MVO + DVO + AVO + Sub Rus, Eng + Original Kor

Ответить на тему
 
Автор Сообщение

Keeper ®

Пол: Не указан

Стаж: 1 год

Сообщений: 499

Создавать темы 07-Фев-2018 20:47

[Цитировать]

Город насилия / Jjakpae / The City Of Violence-Страна: Южная Корея
Жанр: боевик, драма, криминал
Год выпуска: 2006
Продолжительность: 01:33:26-Перевод 1: Профессиональный (многоголосый закадровый) Рен-ТВ
Перевод 2: Любительский (двухголосый)
Перевод 3: Авторский (одноголосый закадровый) Юрий Сербин
Субтитры: русские , английские
Оригинальная аудиодорожка: Корейский-Режиссер: Рю Сын Ван / Ryoo Seung Wan-В ролях: Джае-мо Ахн, Кил-Канг Ан, Seok-yong Jeong, Deok-hyeon Jo, Ду-хон Юнг, Бйонг-Ок Ким, Ши-ху Ким, Су-Хен Ким-Описание:
История «Города насилия» повествует о друзьях детства, которых судьба собрала вместе на похоронах Ван Чжэ. Приехавший в родной город из Сеула, полицейский Тхэ Су чувствует неладное и задерживается в городе после похорон. Вскоре он понимает, что за убийством Ван Чжэ стоит один из их недавних друзей, ставший за эти годы главарем банды.
Объединившись с несдержанным и непредсказуемым Сэ Хваном, Тхэ Су решается отомстить за смерть Ван Чжэ.-Релиз группы: -Сэмпл: Скачать-Тип релиза: BDRip 720p
Контейнер: MKV-Видео: 1 280x694 (1.85:1); 10.4 Mbps; 24.000 fps; 0.486 bpp
Аудио 1: Russian; AC3; 48.0 KHz; 2ch; 192 Kbps MVO
Аудио 2: Russian; AC3; 48.0 KHz; 6ch; 448 Kbps DVO
Аудио 3: Russian; AC3; 48.0 KHz; 6ch; 384 Kbps AVO
Аудио 4: Korean; AC3; 48.0 KHz; 6ch; 640 Kbps
Формат субтитров: softsub (SRT)

MediaInfo

Format : Matroska
Format version : Version 4 / Version 2
File size : 8.00 GiB
Duration : 1h 33mn
Overall bit rate : 12.3 Mbps
Encoded date : UTC 2016-05-12 06:54:29
Writing application : mkvmerge v8.3.0 ('Over the Horizon') 64bit
Writing library : libebml v1.3.1 + libmatroska v1.4.2
Attachements : poster.jpg
DURATION : 01:27:40.049000000
NUMBER_OF_FRAMES : 738
NUMBER_OF_BYTES : 25394
_STATISTICS_WRITING_APP : mkvmerge v8.3.0 ('Over the Horizon') 64bit
_STATISTICS_WRITING_DATE_UT : 2016-05-12 06:54:29
_STATISTICS_TAGS : BPS DURATION NUMBER_OF_FRAMES NUMBER_OF_BYTES
Video
ID : 1
Format : AVC
Format/Info : Advanced Video Codec
Format profile : High@L4.1
Format settings, CABAC : Yes
Format settings, ReFrames : 9 frames
Codec ID : V_MPEG4/ISO/AVC
Duration : 1h 33mn
Bit rate : 10.4 Mbps
Width : 1 280 pixels
Height : 694 pixels
Display aspect ratio : 1.85:1
Frame rate mode : Constant
Frame rate : 24.000 fps
Color space : YUV
Chroma subsampling : 4:2:0
Bit depth : 8 bits
Scan type : Progressive
Bits/(Pixel*Frame) : 0.486
Stream size : 6.76 GiB (84%)
Title : The City of Violence 2006
Language : Korean
Default : Yes
Forced : No
DURATION : 01:33:26.125000000
NUMBER_OF_FRAMES : 134547
NUMBER_OF_BYTES : 7426517300
_STATISTICS_WRITING_APP : mkvmerge v8.3.0 ('Over the Horizon') 64bit
_STATISTICS_WRITING_DATE_UT : 2016-05-12 06:54:29
_STATISTICS_TAGS : BPS DURATION NUMBER_OF_FRAMES NUMBER_OF_BYTES
Audio #1
ID : 2
Format : AC-3
Format/Info : Audio Coding 3
Mode extension : CM (complete main)
Format settings, Endianness : Big
Codec ID : A_AC3
Duration : 1h 33mn
Bit rate mode : Constant
Bit rate : 192 Kbps
Channel(s) : 2 channels
Channel positions : Front: L R
Sampling rate : 48.0 KHz
Compression mode : Lossy
Stream size : 128 MiB (2%)
Title : MVO
Language : Russian
Default : Yes
Forced : No
Audio #2
ID : 3
Format : AC-3
Format/Info : Audio Coding 3
Mode extension : CM (complete main)
Format settings, Endianness : Big
Codec ID : A_AC3
Duration : 1h 33mn
Bit rate mode : Constant
Bit rate : 384 Kbps
Channel(s) : 6 channels
Channel positions : Front: L C R, Side: L R, LFE
Sampling rate : 48.0 KHz
Compression mode : Lossy
Stream size : 257 MiB (3%)
Title : DVO
Language : Russian
Default : No
Forced : No
Audio #3
ID : 4
Format : AC-3
Format/Info : Audio Coding 3
Mode extension : CM (complete main)
Format settings, Endianness : Big
Codec ID : A_AC3
Duration : 1h 33mn
Bit rate mode : Constant
Bit rate : 448 Kbps
Channel(s) : 6 channels
Channel positions : Front: L C R, Side: L R, LFE
Sampling rate : 48.0 KHz
Compression mode : Lossy
Stream size : 299 MiB (4%)
Title : AVO Юрий Сербин
Language : Russian
Default : No
Forced : No
Audio #4
ID : 5
Format : AC-3
Format/Info : Audio Coding 3
Mode extension : CM (complete main)
Format settings, Endianness : Big
Codec ID : A_AC3
Duration : 1h 33mn
Bit rate mode : Constant
Bit rate : 640 Kbps
Channel(s) : 6 channels
Channel positions : Front: L C R, Side: L R, LFE
Sampling rate : 48.0 KHz
Compression mode : Lossy
Stream size : 428 MiB (5%)
Language : Korean
Default : No
Forced : No
Text
ID : 6
Format : UTF-8
Codec ID : S_TEXT/UTF8
Codec ID/Info : UTF-8 Plain Text
Language : English
Default : No
Forced : No
Menu
00:00:00.000 : en:00:00:00.000
00:08:17.958 : en:00:08:17.958
00:15:26.125 : en:00:15:26.125
00:25:06.833 : en:00:25:06.833
00:32:10.583 : en:00:32:10.583
00:40:26.125 : en:00:40:26.125
00:48:46.958 : en:00:48:46.958
01:05:40.500 : en:01:05:40.500
01:11:06.625 : en:01:11:06.625
01:16:53.583 : en:01:16:53.583
01:23:27.333 : en:01:23:27.333
01:28:25.750 : en:01:28:25.750

Скриншоты

[Профиль] [ЛС]
Показать сообщения:    
Ответить на тему

Текущее время: 20-Фев 06:53

Часовой пояс: UTC + 3



Вы не можете начинать темы
Вы не можете отвечать на сообщения
Вы не можете редактировать свои сообщения
Вы не можете удалять свои сообщения
Вы не можете голосовать в опросах
Вы не можете прикреплять файлы к сообщениям
Вы можете скачивать файлы