Статистика раздачи
Размер:  3,53 GB   |    Зарегистрирован:  8 месяцев 3 дня   |    Скачан:  0 раз

Полного источника не было: Никогда

 
   
 
 

soda ®

Пол:
Не указан
Стаж:
8 месяцев 4 дня
Сообщений:
230

Чебурашка / Cheburashka
Страна: Япония, Россия
Жанр: мультфильм, детский, семейный
Продолжительность: 01:15:51
Год выпуска: 2013
Перевод: полное дублирование
Русские субтитры: нет
Режиссёр: Макото Накамура / Makoto Nakamura
Роли озвучивали:
Лариса Брохман
Владимир Ферапонтов
Ольга Зверева
Дмитрий Филимонов
Александр Пожаров
Александр Груздев
Ольга Шорохова
Гарри Бардин
Владимир Орёл
Антон Морозов
Описание: Мультфильм из трех историй: «Чебурашка и цирк», «Чебурашка идет в зоопарк» и «Советы Шапокляк». Прологом служит история о появлении Чебурашки в ящике из-под апельсинов, его знакомстве с крокодилом Геной и обретении друзей.
«Чебурашка и цирк» — история о дружбе и мечте. Гена и Чебурашка помогают девочке Маше научиться ходить по канату и осуществляют ее заветное желание — выступать в цирке. В серии «Чебурашка идет в зоопарк» Гена заболел, и Чебурашка отправился вместо него «работать крокодилом» в зоопарке. Возникает веселая путаница. Заключительная история — «Советы Шапокляк». Герои приходят на помощь фокуснику, потерявшему внучку. А Шапокляк открывает бюро платных бесполезных советов.
Дополнительная информация: Запись со спутника Eutelsat 36A/B, телеканал "Семейное HD".
Семпл: http://multi-up.com/1041380
Релиз:
Качество: HDTV 1080i
Формат: TS
Видео: AVC, 8 bit, 1920x1080i, 25.000 fps, 5887 kbps
Аудио: Русский (Dolby AC3 5.1, 48 kHz, 448 kbps)
Субтитры: Отсутствуют

Подробные технические данные

Общее
Идентификатор : 1 (0x1)
Полное имя : E:\Cheburashka_HDTV_1080i_2013.ts
Формат : MPEG-TS
Размер файла : 3,53 Гбайт
Продолжительность : 1 ч. 15 м.
Режим общего битрейта : Переменный
Общий поток : 6669 Кбит/сек
Максимальный общий битрейт : 35,5 Мбит/сек
Видео
Идентификатор : 4113 (0x1011)
Идентификатор меню : 1 (0x1)
Формат : AVC
Формат/Информация : Advanced Video Codec
Профиль формата : Main@L4.0
Параметр CABAC формата : Да
Параметр ReFrames формата : 3 кадра
Параметр GOP формата : M=4, N=32
Идентификатор кодека : 27
Продолжительность : 1 ч. 15 м.
Вид битрейта : Переменный
Битрейт : 5887 Кбит/сек
Максимальный битрейт : 40,0 Мбит/сек
Ширина : 1920 пикселей
Высота : 1080 пикселей
Соотношение сторон : 16:9
Частота кадров : 25,000 кадров/сек
Стандарт вещания : Component
Цветовое пространство : YUV
Субдискретизация насыщенности : 4:2:0
Битовая глубина : 8 бит
Тип развёртки : Чересстрочная
Порядок развёртки : Верхнее поле первое
Бит/(Пиксели*Кадры) : 0.114
Размер потока : 3,12 Гбайт (88%)
Основные цвета : BT.709
Характеристики трансфера : BT.709
Коэффициенты матрицы : BT.709
colour_range : Limited
Аудио
Идентификатор : 4352 (0x1100)
Идентификатор меню : 1 (0x1)
Формат : AC-3
Формат/Информация : Audio Coding 3
Расширение режима : CM (complete main)
Параметр Endianness формата : Big
Идентификатор кодека : 129
Продолжительность : 1 ч. 15 м.
Вид битрейта : Постоянный
Битрейт : 448 Кбит/сек
Каналы : 6 каналов
Расположение каналов : Front: L C R, Side: L R, LFE
Частота : 48,0 КГц
Битовая глубина : 16 бит
Метод сжатия : С потерями
Задержка видео : 147 мс.
Размер потока : 243 Мбайт (7%)
Язык : Russian

Отличия

http://cybertorrent.ru/viewtopic.php?t=4896568
http://cybertorrent.ru/viewtopic.php?t=4907177
HD раздача
Сценарий в основном Михаила Алдашина (Россия), художники-постановщики Михаил Алдашин и Михаил Тумеля (Беларусь). Озвучка - российские актеры. Композитор и звукорежиссёр Александр Гусев (Россия). Концепт-арт, раскадровка, аниматик и некоторая другая художественная работа выполнялись белорусскими специалистами. Куклы и декорации корейские. Аниматоры и операторы все корейцы. Производство анимации велось в Корее.
Представленная в данной раздаче версия сильно отличается от той, что компания "Реанимедиа" будет показывать в кинотеатрах с 5 июня. Здесь раздается одна из трёх монтажных версий.
Версия 1.: Три отдельных мультфильма. Сначала точный римейк советского "Крокодил Гена". За ним следует новая серия "Чебурашка и цирк". Затем новая серия "Советы Шапокляк". Все части разделены на отдельные мультфильмы. 80 мин.
Версия 2.: (демонстрировалась в японских кинотеатрах и также издана на DVD). Вместо полной серии "Крокодил Гена" сокращенная нарезка из неё с голосом рассказчика. Затем две новых серии "Чебурашка и цирк" и "Советы Шапокляк". Всё смонтировано в один фильм. Присутствует только японская озвучка, отличающаяся от русской тем, что также включает голос рассказчика. 63 мин.
Версия 3.: (раздается здесь и была показана в некоторых российских кинотеатрах). Включает нарезку из "Крокодила Гены". Затем идёт новая серия "Чебурашка и цирк". А вот после неё самая новая серия "Чебурашка идет в зоопарк", снятая совсем недавно. Последней идет "Советы Шапокляк". 79 мин.
Отмечу, что в Японии переснимали Чебурашку многие режиссёры. Так, в 2009 году с разрешения Эдуарда Успенского, автора Чебурашки и Крокодила Гены, режиссер Кудо Сусуму растянул четыре советских мультфильма на целый кукольный сериал из 26 мультфильмов по 3 минуты каждый. Сериал Cheburashka arere? ("Что за Чебурашка?") вышел в эфир на японском телеканале TV Tokyo в октябре 2009 года.

Скриншоты

[www.cybertorrent.ru].t2269.torrent 
Торрент: Зарегистрирован [ 2018-02-16 11:35 ] · 378BECB9A2B200304F390D8013D43FFF454ABF1A

Скачать .torrent

Скачать

18 KB

Статус: проверено
Скачан: 0 раз
Размер: 3,53 GB
Профиль [ЛС]
Показать сообщения:    

Текущее время: 20-Окт 03:07

Часовой пояс: UTC ± 0



Вы не можете начинать темы
Вы не можете отвечать на сообщения
Вы не можете редактировать свои сообщения
Вы не можете удалять свои сообщения
Вы не можете голосовать в опросах
Вы не можете прикреплять файлы к сообщениям
Вы можете скачивать файлы
Torrents24.ru открытый BitTorrent Torrents24.pl открытый BitTorrent CyberTorrent.ru открытый BitTorrent BtList.ru рейтинг BitTorrent трекеров Яндекс.Метрика