BitTorrent клиенты



Война цветов / Цветы зла / Tazza: The High Rollers / The War Of Flower / Tajja (Чхве Дон Хун / Choi Dong-hoon) [2006, Южная Корея, драма, боевик, криминал, BDRemux 1080p] VO (den904) + Sub Rus, Eng + Original Kor

Ответить на тему
 
Автор Сообщение

Keeper ®

Пол: Не указан

Стаж: 1 год

Сообщений: 499

Создавать темы 07-Фев-2018 20:47

[Цитировать]

Цветы зла / Tazza: The High Rollers / The War Of Flower / Tajja
Страна: Южная Корея
Студия: Sidus Pictures
Жанр: драма, боевик, криминал
Год выпуска: 2006
Продолжительность: 02:20:18
Перевод: Одноголосый закадровый den904
Субтитры: русские (Ками), английские
Оригинальная аудиодорожка: корейский
Режиссер: Чхве Дон Хун / Choi Dong-hoon
В ролях: Чо Сын У, Ю Хэ Чин, Ким Хё Су, Пэк Юн Сик, Ким Ын Су, Ким Сан Хо и др.
Описание: Го-ни теряет все свои сбережения и деньги, которые он украл у своей сестры, в игре с высокими ставками. Вскоре после игры, он выясняет, что был обманут, и ближайшие полгода тратит на то, чтобы выследить человека, укравшего его деньги. В процессе своих поисков, он встречает некоего господина Пьёнга, который в игровом подполье имеет статус "тазза" (профессионального игрока). Го-ни становится учеником Пьёнга, чтобы отыграть проигранное.
II Сэмпл II IMDB II
Релиз группа:

Доп. информация:
За русскую дорогу и субтитры спасибо netvkino
Тип релиза: BDRemux 1080p
Контейнер: MKV
Видео: AVC / 1920x1080 / 16:9 / 23.976fps / Bit rate 26000Kbps / High@L4.1
Аудио 1: AC3 / 48.0 KHz / 2ch. / 320kbps / Rus / VO / den904
Аудио 2: DTS-HD MA / 48.0 KHz / 6ch. / 1920kbps / 16bit (DTS Core 48.0 KHz / 6ch. / 1509kbps / 16bit) Kor
Формат субтитров: softsub (SRT)

MediaInfo

Общее
Уникальный идентификатор : 225239041766214333576435802822120283828 (0xA97376260F9A282C827251C3D1B79EB4)
Полное имя : E:\torrent\_HD\temp\Tazza.The.High.Rollers.2006.BDRemux.1080p_by_vedigo.mkv
Формат : Matroska
Версия формата : Version 4 / Version 2
Размер файла : 27,6 Гбайт
Продолжительность : 2 ч. 20 м.
Режим общего битрейта : Переменный
Общий поток : 28,2 Мбит/сек
Название фильма : Tazza.The.High.Rollers.2006.BDRemux.1080p_by_vedigo
Дата кодирования : UTC 2016-05-08 08:11:28
Программа кодирования : mkvmerge v9.1.0 ('Little Earthquakes') 64bit
Библиотека кодирования : libebml v1.3.3 + libmatroska v1.4.4
Видео
Идентификатор : 1
Формат : AVC
Формат/Информация : Advanced Video Codec
Профиль формата : High@L4.1
Параметр CABAC формата : Да
Параметр ReFrames формата : 4 кадра
Параметр GOP формата : M=3, N=24
Идентификатор кодека : V_MPEG4/ISO/AVC
Продолжительность : 2 ч. 20 м.
Вид битрейта : Переменный
Битрейт : 26,0 Мбит/сек
Максимальный битрейт : 34,0 Мбит/сек
Ширина : 1920 пикселей
Высота : 1080 пикселей
Соотношение сторон : 16:9
Режим частоты кадров : Постоянный
Частота кадров : 23,976 (24000/1001) кадра/сек
Стандарт вещания : NTSC
Цветовое пространство : YUV
Субдискретизация насыщенности : 4:2:0
Битовая глубина : 8 бит
Тип развёртки : Прогрессивная
Бит/(Пиксели*Кадры) : 0.523
Размер потока : 25,5 Гбайт (92%)
Заголовок : Tazza.The.High.Rollers.2006.BDRemux.1080p_by_vedigo
Default : Да
Forced : Нет
Цветовой диапазон : Limited
Основные цвета : BT.709
Характеристики трансфера : BT.709
Коэффициенты матрицы : BT.709
Аудио #1
Идентификатор : 2
Формат : AC-3
Формат/Информация : Audio Coding 3
Расширение режима : CM (complete main)
Параметр Endianness формата : Big
Идентификатор кодека : A_AC3
Продолжительность : 2 ч. 20 м.
Вид битрейта : Постоянный
Битрейт : 320 Кбит/сек
Каналы : 2 канала
Расположение каналов : Front: L R
Частота : 48,0 КГц
Частота кадров : 31,250 кадров/сек (1536 spf)
Метод сжатия : С потерями
Размер потока : 321 Мбайт (1%)
Заголовок : VO @ den904
Язык : Russian
Default : Да
Forced : Нет
Аудио #2
Идентификатор : 3
Формат : DTS
Формат/Информация : Digital Theater Systems
Профиль формата : MA / Core
Режим : 16
Параметр Endianness формата : Big
Идентификатор кодека : A_DTS
Продолжительность : 2 ч. 20 м.
Вид битрейта : Переменный / Постоянный
Битрейт : 1920 Кбит/сек / 1509 Кбит/сек
Каналы : 6 каналов
Расположение каналов : Front: L C R, Side: L R, LFE
Частота : 48,0 КГц
Частота кадров : 93,750 кадра/сек (512 spf)
Битовая глубина : 16 бит
Метод сжатия : Без потерь / Lossy
Размер потока : 1,85 Гбайт (7%)
Заголовок : original
Язык : Korean
Default : Нет
Forced : Нет
Текст #1
Идентификатор : 4
Формат : UTF-8
Идентификатор кодека : S_TEXT/UTF8
Идентификатор кодека/Информация : UTF-8 Plain Text
Продолжительность : 2 ч. 16 м.
Битрейт : 82 бит/сек
Count of elements : 1820
Размер потока : 82,2 Кбайт (0%)
Заголовок : subtitle rus
Язык : Russian
Default : Нет
Forced : Нет
Текст #2
Идентификатор : 5
Формат : UTF-8
Идентификатор кодека : S_TEXT/UTF8
Идентификатор кодека/Информация : UTF-8 Plain Text
Продолжительность : 2 ч. 15 м.
Битрейт : 44 бит/сек
Count of elements : 1940
Размер потока : 43,8 Кбайт (0%)
Заголовок : subtitle eng
Язык : English
Default : Нет
Forced : Нет

Скриншоты


[Профиль] [ЛС]
Показать сообщения:    
Ответить на тему

Текущее время: 19-Фев 16:23

Часовой пояс: UTC + 3



Вы не можете начинать темы
Вы не можете отвечать на сообщения
Вы не можете редактировать свои сообщения
Вы не можете удалять свои сообщения
Вы не можете голосовать в опросах
Вы не можете прикреплять файлы к сообщениям
Вы можете скачивать файлы